<?xml version="1.0" standalone="no"?>
<!DOCTYPE svg PUBLIC "-//W3C//DTD SVG 1.1//EN" "http://www.w3.org/Graphics/SVG/1.1/DTD/svg11.dtd" >
<svg xmlns="http://www.w3.org/2000/svg">
<metadata></metadata>
<defs>
<font id="conthraxsemibold" horiz-adv-x="1615" >
<font-face units-per-em="2048" ascent="1491" descent="-557" />
<missing-glyph horiz-adv-x="686" />
<glyph horiz-adv-x="0" />
<glyph horiz-adv-x="682" />
<glyph horiz-adv-x="686" />
<glyph unicode=" "  horiz-adv-x="686" />
<glyph unicode="&#x09;" horiz-adv-x="686" />
<glyph unicode="&#xa0;" horiz-adv-x="686" />
<glyph unicode="!" horiz-adv-x="544" d="M158 1505h229q47 0 47 -47l-57 -921q-2 -24 -12 -34.5t-33 -10.5h-119q-23 0 -33 10.5t-12 34.5l-57 921q0 47 47 47zM172 287h201q45 0 45 -45v-197q0 -45 -45 -45h-201q-47 0 -47 45v197q0 45 47 45z" />
<glyph unicode="&#x22;" horiz-adv-x="1005" d="M618 1536h220q45 0 39 -55l-48 -541q-1 -24 -12 -33.5t-33 -9.5h-112q-22 0 -33 9.5t-12 33.5l-47 541q-6 55 38 55zM168 1536h219q45 0 39 -55l-47 -541q-1 -24 -12 -33.5t-33 -9.5h-113q-22 0 -33 9.5t-12 33.5l-47 541q-6 55 39 55z" />
<glyph unicode="#" horiz-adv-x="1746" d="M158 1102h278v295q0 37 37 37h121q37 0 37 -37v-295h487v295q0 37 37 37h121q37 0 37 -37v-295h276q37 0 37 -37v-123q0 -37 -37 -37h-276v-377h276q37 0 37 -36v-123q0 -37 -37 -37h-276v-295q0 -37 -37 -37h-121q-37 0 -37 37v295h-487v-295q0 -37 -37 -37h-121 q-37 0 -37 37v295h-278q-37 0 -37 37v123q0 36 37 36h278v377h-278q-37 0 -37 37v123q0 37 37 37zM631 905v-377h487v377h-487z" />
<glyph unicode="$" horiz-adv-x="1671" d="M799 1556h94q37 0 37 -36v-154h553q37 0 37 -41v-170q0 -41 -37 -41h-553v-270h321q165 0 241.5 -79.5t76.5 -238.5v-127q0 -153 -74.5 -237t-245.5 -84h-319v-164q0 -37 -37 -37h-94q-37 0 -37 37v164h-598q-39 0 -39 41v170q0 41 39 41h598v303h-318q-164 0 -241.5 78 t-77.5 235v101q0 319 319 319h318v154q0 36 37 36zM1169 633h-239v-303h239q109 0 109 112v80q0 111 -109 111zM418 948q0 -53 26 -78.5t82 -25.5h236v270h-236q-108 0 -108 -110v-56z" />
<glyph unicode="%" horiz-adv-x="2336" d="M1679 1434h127q17 0 21 -12.5t-6 -24.5l-1106 -1377q-17 -20 -56 -20h-124q-17 0 -22 12.5t5 24.5l1106 1376q18 21 55 21zM1640 788h261q171 0 243 -67.5t72 -228.5v-195q0 -161 -72.5 -229t-242.5 -68h-261q-170 0 -241.5 68t-71.5 229v195q0 161 71.5 228.5 t241.5 67.5zM1507 475v-162q0 -88 29.5 -118.5t114.5 -30.5h241q84 0 114 31t30 118v162q0 87 -30 118.5t-114 31.5h-241q-85 0 -114.5 -31t-29.5 -119zM434 1434h260q171 0 243.5 -68t72.5 -229v-195q0 -161 -72.5 -229t-243.5 -68h-260q-170 0 -241.5 68t-71.5 229v195 q0 161 71.5 229t241.5 68zM301 1120v-162q0 -88 29 -118.5t114 -30.5h242q84 0 113.5 31t29.5 118v162q0 88 -30 119t-113 31h-242q-84 0 -113.5 -31t-29.5 -119z" />
<glyph unicode="&#x26;" horiz-adv-x="1789" d="M485 1575h506q108 0 162.5 -58.5t54.5 -152.5v-164q0 -121 -31 -182.5t-126 -114.5l-158 -86l246 -219l264 309q20 23 57 23h201q29 0 37.5 -20t-10.5 -40l-365 -436l426 -379q14 -13 6.5 -34t-29.5 -21h-258q-34 0 -59 25l-244 221l-73 -88q-80 -97 -148 -127.5 t-207 -30.5h-385q-128 0 -198 72.5t-70 220.5v121q0 113 43 186.5t145 130.5l230 125l-113 102q-64 60 -86 109t-22 133v125q0 250 204 250zM727 244q67 0 99 14t71 59l84 99l-309 282l-201 -108q-94 -44 -94 -166v-57q0 -65 27.5 -94t80.5 -29h242zM565 1178q0 -40 9.5 -62 t39.5 -49l105 -94l155 86q43 21 56.5 46t13.5 73v77q0 37 -20 58.5t-58 21.5h-231q-70 0 -70 -92v-65z" />
<glyph unicode="'" horiz-adv-x="555" d="M168 1536h219q45 0 39 -55l-47 -541q-1 -24 -12 -33.5t-33 -9.5h-113q-22 0 -33 9.5t-12 33.5l-47 541q-6 55 39 55z" />
<glyph unicode="(" horiz-adv-x="927" d="M770 1835h49q25 0 25 -29v-139q0 -29 -25 -29h-49q-75 0 -128 -28.5t-93 -95t-60 -184.5t-20 -290v-696q0 -172 20 -290t60 -185.5t93.5 -96t127.5 -28.5h49q25 0 25 -29v-139q0 -27 -25 -27h-49q-173 0 -280.5 77.5t-162.5 253.5t-55 464v696q0 288 55 464t162.5 253.5 t280.5 77.5z" />
<glyph unicode=")" horiz-adv-x="927" d="M158 -451h-49q-25 0 -25 29v139q0 29 25 29h49q75 0 128 28.5t93 95t60 184.5t20 290v696q0 172 -20 290t-60 185.5t-93.5 96t-127.5 28.5h-49q-25 0 -25 29v139q0 27 25 27h49q172 0 280 -77.5t162.5 -253.5t54.5 -464v-696q0 -288 -54.5 -464t-162.5 -253.5t-280 -77.5 z" />
<glyph unicode="*" horiz-adv-x="1191" d="M121 1225l409 -162l-26 440q-3 33 22 33h140q24 0 24 -33l-26 -438l407 160q32 11 41 -15l41 -129q10 -26 -23 -34l-423 -111l278 -340q22 -25 0 -41l-111 -78q-22 -20 -40 10l-236 369l-238 -369q-18 -27 -41 -14l-108 82q-24 15 -2 41l278 338l-426 110q-31 9 -22 37 l43 129q6 28 39 15z" />
<glyph unicode="+" horiz-adv-x="1255" d="M565 1257h123q37 0 37 -36v-406h408q36 0 36 -37v-123q0 -37 -36 -37h-408v-407q0 -37 -37 -37h-123q-37 0 -37 37v407h-405q-37 0 -37 37v123q0 37 37 37h405v406q0 36 37 36z" />
<glyph unicode="," horiz-adv-x="546" d="M174 287h201q45 0 45 -45v-174q0 -47 -14 -97l-76 -278q-7 -26 -19 -35.5t-37 -9.5h-81q-48 0 -39 45l55 305h-35q-47 0 -47 45v199q0 45 47 45z" />
<glyph unicode="-" horiz-adv-x="782" d="M82 815h616q37 0 37 -37v-147q0 -37 -37 -37h-616q-37 0 -37 37v147q0 37 37 37z" />
<glyph unicode="." horiz-adv-x="546" d="M174 287h201q45 0 45 -45v-197q0 -45 -45 -45h-201q-47 0 -47 45v197q0 45 47 45z" />
<glyph unicode="/" horiz-adv-x="847" d="M666 1669h143q17 0 24 -10t1 -27l-615 -1900q-7 -20 -13.5 -26.5t-25.5 -6.5h-143q-37 0 -25 37l615 1898q7 21 13.5 28t25.5 7z" />
<glyph unicode="0" horiz-adv-x="1857" d="M692 1434h473q311 0 442.5 -123.5t131.5 -417.5v-352q0 -294 -131.5 -417.5t-442.5 -123.5h-473q-311 0 -442 123.5t-131 417.5v352q0 294 131 417.5t442 123.5zM422 881v-328q0 -163 56 -222t214 -59h473q158 0 214.5 59t56.5 222v328q0 163 -56.5 221.5t-214.5 58.5 h-473q-158 0 -214 -58.5t-56 -221.5z" />
<glyph unicode="1" horiz-adv-x="692" d="M94 1434h273q100 0 144 -42t44 -132v-1215q0 -45 -45 -45h-211q-45 0 -45 45v1073q0 43 -43 43h-117q-47 0 -47 45v183q0 45 47 45z" />
<glyph unicode="2" horiz-adv-x="1767" d="M211 1434h1085q180 0 271.5 -89.5t91.5 -244.5v-144q0 -169 -91.5 -259.5t-267.5 -90.5h-778q-106 0 -106 -117v-174q0 -43 41 -43h1153q47 0 47 -45v-182q0 -45 -47 -45h-1307q-101 0 -145.5 41.5t-44.5 132.5v315q0 170 91 261.5t267 91.5h778q107 0 107 114v88 q0 117 -109 117h-1036q-45 0 -45 45v183q0 45 45 45z" />
<glyph unicode="3" horiz-adv-x="1726" d="M147 1434h1061q208 0 298.5 -82t90.5 -256v-99q0 -171 -120 -260q131 -83 131 -264v-119q0 -172 -84.5 -263t-278.5 -91h-1098q-45 0 -45 45v182q0 45 45 45h1006q79 0 115.5 30.5t36.5 96.5v76q0 66 -40.5 98.5t-138.5 32.5h-966q-47 0 -47 45v146q0 45 47 45h966 q98 0 137.5 30t39.5 93v71q0 65 -36.5 95t-117.5 30h-1002q-45 0 -45 45v183q0 45 45 45z" />
<glyph unicode="4" horiz-adv-x="1853" d="M154 739l927 633q53 35 95.5 48.5t109.5 13.5h121q94 0 136 -44.5t42 -164.5v-674h168q45 0 45 -47v-166q0 -45 -45 -45h-168v-248q0 -45 -45 -45h-211q-47 0 -47 45v248h-1077q-64 0 -97.5 34t-33.5 91v155q0 59 17 97t63 69zM412 565q0 -14 16 -14h854v588q0 22 -16 22 h-13q-21 0 -45 -16l-784 -539q-12 -9 -12 -28v-13z" />
<glyph unicode="5" horiz-adv-x="1767" d="M303 1434h1258q45 0 45 -45v-183q0 -45 -45 -45h-1104q-41 0 -41 -43v-233q0 -43 41 -43h843q176 0 267.5 -90.5t91.5 -259.5v-158q0 -155 -91.5 -244.5t-271.5 -89.5h-1134q-47 0 -47 45v182q0 45 47 45h1085q109 0 109 117v103q0 114 -107 114h-946q-102 0 -146 41 t-44 133v480q0 91 44.5 132.5t145.5 41.5z" />
<glyph unicode="6" horiz-adv-x="1777" d="M692 1434h871q45 0 45 -45v-183q0 -45 -45 -45h-871q-158 0 -214 -58.5t-56 -221.5v-39h883q191 0 274.5 -87.5t83.5 -258.5v-150q0 -169 -88.5 -257.5t-284.5 -88.5h-598q-311 0 -442 123.5t-131 417.5v352q0 294 131 417.5t442 123.5zM1243 616h-821v-73 q0 -162 56 -220.5t214 -58.5h549q64 0 92.5 29.5t28.5 93.5v109q0 64 -27.5 92t-91.5 28z" />
<glyph unicode="7" horiz-adv-x="1697" d="M94 1434h1401q64 0 97.5 -34t33.5 -91v-142q0 -63 -16.5 -100.5t-63.5 -89.5l-872 -938q-21 -22 -39 -30.5t-49 -8.5h-287q-24 0 -31 20t8 35l1008 1061q16 19 16 35v10q0 6 -5.5 10.5t-12.5 4.5h-1188q-47 0 -47 45v168q0 45 47 45z" />
<glyph unicode="8" horiz-adv-x="1851" d="M518 1434h815q208 0 298.5 -82t90.5 -256v-99q0 -178 -127 -264q138 -78 138 -260v-119q0 -172 -84.5 -263t-278.5 -91h-889q-194 0 -278 91t-84 263v119q0 183 137 260q-127 86 -127 264v99q0 174 90.5 256t298.5 82zM424 485v-90q0 -65 35 -95t116 -30h701 q81 0 117.5 30t36.5 95v90q0 66 -40.5 97.5t-138.5 31.5h-651q-97 0 -136.5 -31.5t-39.5 -97.5zM426 1032v-76q0 -63 38.5 -92.5t135.5 -29.5h651q97 0 135.5 29.5t38.5 92.5v76q0 65 -35.5 98t-115.5 33h-696q-80 0 -116 -33t-36 -98z" />
<glyph unicode="9" horiz-adv-x="1777" d="M504 1434h581q311 0 442.5 -123.5t131.5 -417.5v-352q0 -294 -131.5 -417.5t-442.5 -123.5h-878q-45 0 -45 45v182q0 45 45 45h878q158 0 214.5 59t56.5 222v45h-867q-376 0 -376 332v135q0 187 96 278t295 91zM412 954q0 -65 27.5 -98t90.5 -33h826v68q0 162 -56.5 220 t-214.5 58h-555q-62 0 -90 -29t-28 -93v-93z" />
<glyph unicode=":" horiz-adv-x="546" d="M174 451h201q45 0 45 -45v-197q0 -45 -45 -45h-201q-47 0 -47 45v197q0 45 47 45zM174 1063h201q45 0 45 -45v-197q0 -45 -45 -45h-201q-47 0 -47 45v197q0 45 47 45z" />
<glyph unicode=";" horiz-adv-x="546" d="M174 451h201q45 0 45 -45v-175q0 -46 -14 -96l-76 -278q-7 -26 -19 -35.5t-37 -9.5h-81q-48 0 -39 45l55 305h-35q-47 0 -47 45v199q0 45 47 45zM174 1063h201q45 0 45 -45v-197q0 -45 -45 -45h-201q-47 0 -47 45v197q0 45 47 45z" />
<glyph unicode="&#x3c;" horiz-adv-x="1255" d="M176 897l942 348q21 8 36 -2t15 -33v-123q0 -35 -28 -43l-811 -296q-17 -6 -17 -23v-12q0 -17 17 -23l811 -297q28 -8 28 -43v-123q0 -22 -15 -31t-36 -3l-942 348q-50 19 -70 44t-20 72v123q0 47 20 72.5t70 44.5z" />
<glyph unicode="=" horiz-adv-x="1255" d="M123 569h1010q36 0 36 -37v-120q0 -37 -36 -37h-1010q-37 0 -37 37v120q0 37 37 37zM123 1061h1010q36 0 36 -37v-123q0 -37 -36 -37h-1010q-37 0 -37 37v123q0 37 37 37z" />
<glyph unicode="&#x3e;" horiz-adv-x="1255" d="M1077 541l-942 -348q-21 -8 -36 1.5t-15 32.5v123q0 34 29 43l811 297q16 5 16 23v12q0 18 -16 23l-811 296q-29 9 -29 43v123q0 22 15 31.5t36 3.5l942 -348q50 -19 70 -44.5t20 -72.5v-123q0 -47 -20 -72t-70 -44z" />
<glyph unicode="?" horiz-adv-x="1292" d="M430 287h201q47 0 47 -45v-197q0 -45 -47 -45h-201q-45 0 -45 45v197q0 45 45 45zM104 1505h842q279 0 279 -276v-86q0 -123 -41 -187t-148 -116l-338 -162q-29 -13 -40.5 -33t-14.5 -51l-6 -51q-3 -31 -15.5 -41t-46.5 -10h-90q-32 0 -44.5 12t-12.5 39l-2 100 q0 63 18 105.5t72 70.5l348 180q34 17 49 42.5t15 66.5v53q0 86 -88 86h-736q-45 0 -45 45v168q0 45 45 45z" />
<glyph unicode="@" horiz-adv-x="1792" d="M496 1282h759q416 0 416 -403v-459q0 -194 -76.5 -278.5t-246.5 -84.5h-367q-307 0 -307 287v186q0 285 301 285h473v55q0 203 -209 203h-694q-178 0 -178 -196v-793q0 -301 284 -301h977q33 0 33 -31v-170q0 -33 -33 -33h-975q-534 0 -534 535v813q0 385 377 385z M1280 246q87 0 127.5 43.5t40.5 138.5v211h-418q-133 0 -133 -139v-117q0 -137 133 -137h250z" />
<glyph unicode="A" horiz-adv-x="1996" d="M924 1434h120q81 0 134 -33.5t102 -122.5l678 -1231q11 -20 5 -33.5t-30 -13.5h-260q-20 0 -29.5 6t-17.5 21l-145 264h-963l-141 -264q-13 -27 -47 -27h-267q-50 0 -26 47l672 1231q49 89 98 122.5t117 33.5zM969 1128l-322 -600h705l-326 600q-9 15 -22 15h-13 q-13 0 -22 -15z" />
<glyph unicode="B" horiz-adv-x="1882" d="M197 1434h1179q208 0 298.5 -82t90.5 -256v-99q0 -173 -131 -260q142 -81 142 -264v-119q0 -172 -84 -263t-279 -91h-1216q-62 0 -62 61v1311q0 62 62 62zM1288 614h-839v-305q0 -26 26 -26h840q81 0 116 30t35 95v77q0 66 -40 97.5t-138 31.5zM449 1124v-286h839 q98 0 137 29t39 91v70q0 63 -36 93t-115 30h-838q-26 0 -26 -27z" />
<glyph unicode="C" horiz-adv-x="1744" d="M692 1434h924q45 0 45 -45v-201q0 -47 -45 -47h-911q-159 0 -216 -58.5t-57 -220.5v-291q0 -163 57.5 -221.5t215.5 -58.5h911q45 0 45 -45v-201q0 -45 -45 -45h-924q-311 0 -442 123.5t-131 417.5v352q0 294 131 417.5t442 123.5z" />
<glyph unicode="D" horiz-adv-x="1902" d="M197 1434h958q331 0 479 -138.5t148 -439.5v-278q0 -301 -148 -439.5t-479 -138.5h-958q-62 0 -62 61v1311q0 62 62 62zM449 1120v-809q0 -26 26 -26h672q182 0 251.5 69t69.5 250v225q0 181 -69.5 250.5t-251.5 69.5h-672q-26 0 -26 -29z" />
<glyph unicode="E" horiz-adv-x="1740" d="M692 1434h901q47 0 47 -45v-195q0 -45 -47 -45h-895q-159 0 -215.5 -58.5t-56.5 -220.5v-20h1157q45 0 45 -45v-162q0 -45 -45 -45h-1157v-35q0 -162 56.5 -220t215.5 -58h895q47 0 47 -45v-195q0 -45 -47 -45h-901q-311 0 -442 123.5t-131 417.5v352q0 294 131 417.5 t442 123.5z" />
<glyph unicode="F" horiz-adv-x="1708" d="M692 1434h901q47 0 47 -45v-195q0 -45 -47 -45h-888q-158 0 -215.5 -59t-57.5 -220v-41h1151q45 0 45 -45v-161q0 -45 -45 -45h-1151v-533q0 -45 -45 -45h-221q-47 0 -47 45v848q0 294 131 417.5t442 123.5z" />
<glyph unicode="G" horiz-adv-x="1896" d="M692 1434h1039q45 0 45 -45v-201q0 -47 -45 -47h-1026q-159 0 -216 -58.5t-57 -220.5v-295q0 -163 57.5 -221.5t215.5 -58.5h675q55 0 79 28.5t24 96.5v166q0 26 -25 26h-600q-45 0 -45 47v154q0 47 45 47h854q62 0 62 -61v-478q0 -167 -63.5 -240t-190.5 -73h-828 q-311 0 -442 123.5t-131 417.5v352q0 294 131 417.5t442 123.5z" />
<glyph unicode="H" horiz-adv-x="1855" d="M182 1434h221q46 0 46 -45v-533h958v533q0 45 45 45h221q47 0 47 -45v-1344q0 -45 -47 -45h-221q-45 0 -45 45v545h-958v-545q0 -45 -46 -45h-221q-47 0 -47 45v1344q0 45 47 45z" />
<glyph unicode="I" horiz-adv-x="585" d="M182 1434h221q46 0 46 -45v-1344q0 -45 -46 -45h-221q-47 0 -47 45v1344q0 45 47 45z" />
<glyph unicode="J" horiz-adv-x="1599" d="M1200 1434h221q45 0 45 -45v-848q0 -295 -130.5 -418t-442.5 -123h-799q-47 0 -47 45v201q0 45 47 45h789q158 0 214 58.5t56 221.5v818q0 45 47 45z" />
<glyph unicode="K" horiz-adv-x="1748" d="M182 1434h221q46 0 46 -45v-545h288q98 0 141 17t87 75l352 471q12 16 22.5 21.5t36.5 5.5h254q25 0 32 -18t-5 -32l-397 -514q-73 -95 -123 -137q81 -52 155 -147l420 -533q11 -11 6 -32t-32 -21h-263q-24 0 -34.5 5.5t-22.5 21.5l-377 487q-42 54 -88 73t-141 19h-311 v-561q0 -45 -46 -45h-221q-47 0 -47 45v1344q0 45 47 45z" />
<glyph unicode="L" horiz-adv-x="1640" d="M178 1434h221q45 0 45 -45v-818q0 -163 57.5 -221.5t215.5 -58.5h829q45 0 45 -45v-201q0 -45 -45 -45h-841q-311 0 -442.5 123.5t-131.5 417.5v848q0 45 47 45z" />
<glyph unicode="M" horiz-adv-x="2445" d="M317 1434h224q93 0 135.5 -30t83.5 -126l426 -983q8 -19 28 -19h25q21 0 29 19l426 983q41 96 83.5 126t133.5 30h219q105 0 142.5 -46.5t37.5 -166.5v-1176q0 -45 -47 -45h-209q-45 0 -45 45v1069q0 21 -16 21h-19q-20 0 -26 -17l-414 -917q-53 -114 -107.5 -157.5 t-154.5 -43.5h-98q-100 0 -155.5 44t-107.5 157l-413 917q-6 17 -27 17h-18q-17 0 -17 -21v-1069q0 -45 -45 -45h-209q-47 0 -47 45v1176q0 120 38 166.5t144 46.5z" />
<glyph unicode="N" horiz-adv-x="2002" d="M319 1434h181q97 0 137.5 -21t99.5 -100l762 -1000q8 -14 27 -14h18q17 0 17 20v1070q0 45 45 45h215q45 0 45 -45v-1176q0 -120 -43.5 -166.5t-141.5 -46.5h-176q-95 0 -135.5 20t-101.5 101l-764 999q-12 15 -27 15h-18q-17 0 -17 -21v-1069q0 -45 -45 -45h-215 q-47 0 -47 45v1176q0 120 43 166.5t141 46.5z" />
<glyph unicode="O" horiz-adv-x="2017" d="M692 1434h633q312 0 442.5 -123t130.5 -418v-352q0 -295 -130.5 -418t-442.5 -123h-633q-311 0 -442 123.5t-131 417.5v352q0 294 131 417.5t442 123.5zM432 870v-307q0 -161 57.5 -219.5t215.5 -58.5h608q158 0 215 58.5t57 219.5v307q0 162 -57 220.5t-215 58.5h-608 q-158 0 -215.5 -59t-57.5 -220z" />
<glyph unicode="P" horiz-adv-x="1804" d="M197 1434h1099q230 0 335.5 -105t105.5 -317v-152q0 -212 -105.5 -317t-335.5 -105h-847v-393q0 -45 -46 -45h-221q-47 0 -47 45v1327q0 62 62 62zM449 1126v-417h784q102 0 146 44t44 138v78q0 94 -44 138t-146 44h-758q-26 0 -26 -25z" />
<glyph unicode="Q" horiz-adv-x="2017" d="M692 1434h633q312 0 442.5 -123t130.5 -418v-318q0 -252 -93.5 -376.5t-309.5 -153.5l236 -326q11 -11 5 -31t-32 -20h-262q-39 0 -58 25l-235 342h-457q-311 0 -442 123t-131 417v318q0 294 131 417.5t442 123.5zM432 870v-272q0 -161 57.5 -220t215.5 -59h608 q158 0 215 58.5t57 220.5v272q0 162 -57 220.5t-215 58.5h-608q-158 0 -215.5 -59t-57.5 -220z" />
<glyph unicode="R" horiz-adv-x="1853" d="M197 1434h1099q230 0 335.5 -105t105.5 -317v-117q0 -178 -73 -279.5t-232 -130.5l350 -434q12 -11 5 -31t-32 -20h-264q-25 0 -36 6t-21 21l-324 426h-661v-408q0 -45 -46 -45h-221q-47 0 -47 45v1327q0 62 62 62zM449 1128v-426h784q102 0 146 44.5t44 138.5v86 q0 94 -44 138t-146 44h-758q-26 0 -26 -25z" />
<glyph unicode="S" horiz-adv-x="1755" d="M473 1434h1086q45 0 45 -45v-195q0 -45 -45 -45h-1027q-108 0 -108 -115v-69q0 -115 106 -115h768q176 0 267.5 -91t91.5 -261v-164q0 -155 -91.5 -244.5t-271.5 -89.5h-1134q-47 0 -47 45v195q0 45 47 45h1075q108 0 108 114v84q0 115 -106 115h-768q-176 0 -267 91 t-91 261v150q0 155 91 244.5t271 89.5z" />
<glyph unicode="T" horiz-adv-x="1787" d="M94 1434h1600q47 0 47 -45v-201q0 -47 -47 -47h-643v-1096q0 -45 -45 -45h-224q-45 0 -45 45v1096h-643q-47 0 -47 47v201q0 45 47 45z" />
<glyph unicode="U" horiz-adv-x="2000" d="M178 1434h221q45 0 45 -45v-818q0 -163 57.5 -221.5t215.5 -58.5h567q158 0 214 58.5t56 221.5v818q0 45 45 45h224q45 0 45 -45v-848q0 -295 -131 -418t-443 -123h-589q-311 0 -442.5 123.5t-131.5 417.5v848q0 45 47 45z" />
<glyph unicode="V" horiz-adv-x="1996" d="M63 1434h259q32 0 47 -27l600 -1102q7 -14 24 -14h11q15 0 22 14l592 1102q14 27 47 27h268q24 0 30 -14t-5 -34l-672 -1230q-49 -90 -98 -123t-117 -33h-119q-82 0 -133 32.5t-102 123.5l-680 1230q-12 20 -5.5 34t31.5 14z" />
<glyph unicode="W" horiz-adv-x="2668" d="M61 1434h275q21 0 29 -27l331 -1102q2 -14 17 -14h10q11 0 16 14l332 1010q22 67 58 93t94 26h202q67 0 103.5 -27t58.5 -92l340 -1010q5 -14 17 -14h12q11 0 16 14l324 1102q7 27 33 27h276q31 0 16 -48l-393 -1230q-29 -90 -63 -123t-94 -33h-240q-60 0 -93.5 33 t-64.5 123l-321 972q-3 15 -17 15h-8q-13 0 -16 -15l-326 -972q-31 -90 -64.5 -123t-93.5 -33h-233q-71 0 -107 31.5t-65 124.5l-377 1230q-14 48 16 48z" />
<glyph unicode="X" horiz-adv-x="1824" d="M1464 1434h267q26 0 30.5 -20t-10.5 -34l-629 -637l658 -690q15 -13 10 -33t-31 -20h-280q-43 0 -66 29l-506 530l-508 -530q-26 -29 -67 -29h-266q-25 0 -29.5 20t10.5 33l674 701l-608 626q-14 14 -10 34t30 20h281q39 0 65 -29l447 -475l473 475q26 29 65 29z" />
<glyph unicode="Y" horiz-adv-x="1835" d="M49 1434h275q32 0 49 -25l547 -739l550 739q17 25 50 25h268q17 0 23 -14t-5 -27l-735 -955v-393q0 -45 -45 -45h-221q-47 0 -47 45v393l-727 955q-11 13 -5.5 27t23.5 14z" />
<glyph unicode="Z" horiz-adv-x="1748" d="M158 1434h1325q83 0 122.5 -38t39.5 -118v-186q0 -73 -20.5 -106t-82.5 -66l-1083 -572q-19 -11 -19 -31v-14q0 -18 21 -18h1124q47 0 47 -45v-195q0 -45 -47 -45h-1325q-84 0 -123 37.5t-39 116.5v186q0 75 18.5 107.5t78.5 64.5l1079 573q18 10 18 31v14q0 19 -20 19 h-1114q-47 0 -47 45v195q0 45 47 45z" />
<glyph unicode="[" horiz-adv-x="927" d="M449 1835h370q25 0 25 -29v-139q0 -29 -25 -29h-293q-49 0 -49 -55v-1784q0 -55 49 -55h293q25 0 25 -29v-139q0 -29 -25 -29h-370q-86 0 -126 45.5t-40 141.5v1915q0 96 40 141t126 45z" />
<glyph unicode="\" horiz-adv-x="847" d="M37 1669h143q19 0 25.5 -7t13.5 -28l615 -1898q12 -37 -25 -37h-143q-19 0 -25.5 6.5t-13.5 26.5l-615 1900q-6 17 1 27t24 10z" />
<glyph unicode="]" horiz-adv-x="927" d="M479 -453h-370q-25 0 -25 29v139q0 29 25 29h292q50 0 50 55v1784q0 55 -50 55h-292q-25 0 -25 29v139q0 29 25 29h370q86 0 126 -45t40 -141v-1915q0 -96 -40 -141.5t-126 -45.5z" />
<glyph unicode="^" horiz-adv-x="1255" d="M565 1434h123q45 0 72 -20.5t45 -72.5l348 -962q8 -22 -2 -36.5t-33 -14.5h-121q-36 0 -45 26l-297 836q-5 14 -22 14h-12q-18 0 -23 -14l-297 -836q-9 -26 -43 -26h-123q-22 0 -32 14.5t-3 36.5l349 962q18 51 45 72t71 21z" />
<glyph unicode="_" horiz-adv-x="1314" d="M49 -147h1219q37 0 37 -37v-123q0 -37 -37 -37h-1219q-37 0 -37 37v123q0 37 37 37z" />
<glyph unicode="`" horiz-adv-x="804" d="M205 1671h180q43 0 64 -47l186 -379q10 -22 1 -34.5t-34 -12.5h-153q-23 0 -37 11t-27 36l-211 379q-11 23 -1.5 35t32.5 12z" />
<glyph unicode="a" d="M154 1124h884q185 0 291.5 -43t151.5 -131.5t45 -240.5v-545q0 -99 -31 -131.5t-121 -32.5h-975q-177 0 -246 67.5t-69 223.5v98q0 136 70.5 202t244.5 66h834v39q0 101 -46.5 142t-176.5 41h-856q-37 0 -37 36v172q0 37 37 37zM1174 225q32 0 45.5 16t13.5 54v180h-750 q-61 0 -87.5 -24.5t-26.5 -75.5v-43q0 -56 26 -81.5t88 -25.5h691z" />
<glyph unicode="b" horiz-adv-x="1783" d="M170 1536h201q45 0 45 -45v-367h768q185 0 291 -43t151 -131.5t45 -240.5v-295q0 -152 -45 -240.5t-151 -131t-291 -42.5h-574q-185 0 -291 42.5t-151 131t-45 240.5v1077q0 45 47 45zM1155 879h-739v-408q0 -130 46 -177.5t177 -47.5h516q132 0 178.5 47.5t46.5 177.5 v182q0 130 -46.5 178t-178.5 48z" />
<glyph unicode="c" horiz-adv-x="1492" d="M567 1124h824q36 0 36 -37v-172q0 -20 -8.5 -28t-27.5 -8h-795q-132 0 -177.5 -47.5t-45.5 -178.5v-182q0 -131 45.5 -178t177.5 -47h795q36 0 36 -37v-172q0 -37 -36 -37h-824q-185 0 -291 42.5t-151 131t-45 240.5v295q0 152 45 240.5t151 131.5t291 43z" />
<glyph unicode="d" horiz-adv-x="1783" d="M598 1124h770v367q0 45 45 45h201q45 0 45 -45v-1077q0 -152 -45.5 -240.5t-151.5 -131t-291 -42.5h-573q-185 0 -291 42.5t-151 131t-45 240.5v295q0 152 45 240.5t151 131.5t291 43zM1143 246q132 0 178.5 47.5t46.5 177.5v408h-741q-131 0 -177.5 -48t-46.5 -178v-182 q0 -130 46.5 -177.5t177.5 -47.5h516z" />
<glyph unicode="e" d="M571 1124h600q106 0 174 -17t108.5 -58.5t56.5 -103t16 -157.5v-194q0 -64 -27.5 -90.5t-89.5 -26.5h-1034v-49q0 -100 47.5 -141t177.5 -41h854q37 0 37 -37v-172q0 -37 -37 -37h-883q-185 0 -291 42.5t-151 131t-45 240.5v295q0 152 45 240.5t151 131.5t291 43z M375 715v-56h829q19 0 27 7.5t8 27.5v86q0 64 -27.5 90.5t-97.5 26.5h-514q-130 0 -177.5 -40.5t-47.5 -141.5z" />
<glyph unicode="f" horiz-adv-x="1003" d="M72 1124h196v43q0 113 18.5 186.5t65.5 125t127 74t203 22.5h248q37 0 37 -37v-168q0 -37 -37 -37h-199q-97 0 -134.5 -39t-37.5 -127v-43h359q36 0 36 -37v-167q0 -37 -36 -37h-359v-838q0 -45 -45 -45h-201q-45 0 -45 45v838h-196q-37 0 -37 37v167q0 37 37 37z" />
<glyph unicode="g" horiz-adv-x="1783" d="M598 1124h573q140 0 233 -22.5t150 -74t81 -127t24 -189.5v-746q0 -153 -45 -242.5t-151 -132.5t-292 -43h-964q-37 0 -37 37v172q0 37 37 37h936q132 0 178.5 47.5t46.5 179.5v54h-770q-185 0 -291 43t-151 132.5t-45 242.5v215q0 153 45 242t151 132t291 43zM403 494 q0 -107 47.5 -150t176.5 -43h741v383q0 111 -47 155t-178 44h-516q-129 0 -176.5 -43t-47.5 -150v-196z" />
<glyph unicode="h" horiz-adv-x="1800" d="M176 1536h201q45 0 45 -45v-367h766q185 0 291 -43t151 -131.5t45 -240.5v-664q0 -45 -45 -45h-200q-46 0 -46 45v594q0 133 -40.5 179t-169.5 46h-752v-819q0 -45 -45 -45h-201q-45 0 -45 45v1446q0 45 45 45z" />
<glyph unicode="i" horiz-adv-x="552" d="M176 1124h201q45 0 45 -47v-1032q0 -45 -45 -45h-201q-45 0 -45 45v1032q0 47 45 47zM176 1540h201q45 0 45 -45v-195q0 -47 -45 -47h-201q-47 0 -47 47v195q0 45 47 45z" />
<glyph unicode="j" horiz-adv-x="577" d="M205 1124h201q45 0 45 -47v-1118q0 -151 -42.5 -239t-144.5 -130.5t-280 -42.5h-162q-37 0 -37 37v172q0 37 37 37h133q121 0 162 46.5t41 176.5v1061q0 47 47 47zM205 1540h201q45 0 45 -45v-195q0 -47 -45 -47h-201q-47 0 -47 47v195q0 45 47 45z" />
<glyph unicode="k" horiz-adv-x="1626" d="M174 1536h201q45 0 45 -45v-811h377q90 0 126.5 15t75.5 71l230 324q12 19 25 26.5t36 7.5h232q23 0 28.5 -17.5t-8.5 -37.5l-264 -362q-64 -86 -127 -132q83 -48 145 -131l291 -393q13 -17 6 -34t-30 -17h-230q-26 0 -38.5 6t-24.5 23l-250 344q-37 50 -79 68t-126 18 h-395v-414q0 -45 -45 -45h-201q-47 0 -47 45v1446q0 45 47 45z" />
<glyph unicode="l" horiz-adv-x="552" d="M176 1536h201q45 0 45 -45v-1446q0 -45 -45 -45h-201q-45 0 -45 45v1446q0 45 45 45z" />
<glyph unicode="m" horiz-adv-x="2267" d="M610 1124h1047q185 0 290.5 -43t150 -131.5t44.5 -240.5v-664q0 -45 -45 -45h-201q-45 0 -45 45v594q0 68 -8 108t-31 68t-63.5 38.5t-108.5 10.5h-360v-819q0 -45 -47 -45h-201q-45 0 -45 45v819h-348q-131 0 -177 -47.5t-46 -177.5v-594q0 -45 -45 -45h-201 q-47 0 -47 45v664q0 152 45 240.5t151 131.5t291 43z" />
<glyph unicode="n" horiz-adv-x="1810" d="M610 1124h588q185 0 291.5 -43t151.5 -131.5t45 -240.5v-664q0 -45 -46 -45h-200q-45 0 -45 45v594q0 68 -8 108.5t-31.5 68t-64 38t-107.5 10.5h-545q-131 0 -177 -47.5t-46 -177.5v-594q0 -45 -45 -45h-201q-47 0 -47 45v664q0 152 45 240.5t151 131.5t291 43z" />
<glyph unicode="o" horiz-adv-x="1777" d="M598 1124h580q185 0 291 -43t151 -131.5t45 -240.5v-295q0 -152 -45 -240.5t-151 -131t-291 -42.5h-580q-185 0 -291 42.5t-151 131t-45 240.5v295q0 152 45 240.5t151 131.5t291 43zM403 659v-194q0 -130 46.5 -177.5t177.5 -47.5h522q132 0 178.5 47.5t46.5 177.5v194 q0 130 -46.5 177t-178.5 47h-522q-131 0 -177.5 -47t-46.5 -177z" />
<glyph unicode="p" horiz-adv-x="1783" d="M610 1124h574q185 0 291 -43t151 -131.5t45 -240.5v-295q0 -152 -45 -240.5t-151 -131t-291 -42.5h-768v-408q0 -45 -45 -45h-201q-47 0 -47 45v1117q0 152 45 240.5t151 131.5t291 43zM416 653v-407h739q133 0 179 47t46 178v182q0 130 -46.5 178t-178.5 48h-516 q-131 0 -177 -48t-46 -178z" />
<glyph unicode="q" horiz-adv-x="1783" d="M598 1124h573q185 0 291.5 -43t151.5 -131.5t45 -240.5v-1117q0 -45 -45 -45h-201q-45 0 -45 45v408h-770q-185 0 -291 42.5t-151 131t-45 240.5v295q0 152 45 240.5t151 131.5t291 43zM403 471q0 -131 46.5 -178t177.5 -47h741v407q0 130 -46.5 178t-178.5 48h-516 q-131 0 -177.5 -48t-46.5 -178v-182z" />
<glyph unicode="r" horiz-adv-x="1255" d="M610 1124h574q37 0 37 -37v-172q0 -36 -37 -36h-545q-131 0 -177 -48t-46 -178v-608q0 -45 -45 -45h-201q-47 0 -47 45v664q0 152 45 240.5t151 131.5t291 43z" />
<glyph unicode="s" horiz-adv-x="1603" d="M426 1124h999q37 0 37 -37v-163q0 -37 -37 -37h-923q-61 0 -87 -23t-26 -69v-31q0 -43 26 -65.5t87 -22.5h690q167 0 243 -69.5t76 -205.5v-114q0 -142 -73.5 -214.5t-247.5 -72.5h-1049q-37 0 -37 37v164q0 37 37 37h971q63 0 89 22.5t26 75.5v55q0 86 -115 86h-688 q-168 0 -244 69t-76 208v90q0 136 74.5 208t247.5 72z" />
<glyph unicode="t" horiz-adv-x="1003" d="M72 1124h194v271q0 45 45 45h203q45 0 45 -45v-271h359q36 0 36 -37v-167q0 -37 -36 -37h-359v-475q0 -88 37 -127t135 -39h199q37 0 37 -37v-168q0 -37 -37 -37h-248q-123 0 -203.5 22t-127.5 73.5t-66 125.5t-19 187v475h-194q-37 0 -37 37v167q0 37 37 37z" />
<glyph unicode="u" horiz-adv-x="1794" d="M170 1124h201q45 0 45 -47v-592q0 -68 8 -108t31 -68t63.5 -38.5t108.5 -10.5h526q132 0 178.5 47.5t46.5 177.5v592q0 47 45 47h201q45 0 45 -47v-663q0 -152 -45 -240.5t-151 -131t-291 -42.5h-572q-185 0 -291 42.5t-151 131t-45 240.5v663q0 47 47 47z" />
<glyph unicode="v" horiz-adv-x="1699" d="M61 1124h236q35 0 49 -28l481 -846q7 -12 23 -12h8q16 0 23 12l483 846q16 28 49 28h227q22 0 30 -15.5t-3 -35.5l-561 -981q-30 -52 -67 -72t-105 -20h-168q-67 0 -103.5 20t-66.5 72l-561 981q-11 20 -3.5 35.5t29.5 15.5z" />
<glyph unicode="w" horiz-adv-x="2385" d="M72 1124h231q37 0 47 -32l264 -842q6 -14 21 -14h8q18 0 21 14l276 776q20 56 48 77t83 21h244q55 0 83 -21t48 -77l274 -776q3 -14 21 -14h8q14 0 20 14l267 842q6 32 47 32h231q49 0 35 -49l-311 -948q-24 -75 -58 -101t-100 -26h-258q-53 0 -81.5 27t-55.5 100 l-271 747q-3 13 -18 13h-12q-16 0 -19 -13l-268 -747q-27 -73 -55.5 -100t-81.5 -27h-258q-66 0 -100 26t-58 101l-307 948q-14 49 35 49z" />
<glyph unicode="x" horiz-adv-x="1619" d="M113 1124h260q35 0 59 -24l404 -369l413 369q21 24 58 24h231q28 0 34 -20t-11 -35l-547 -502l563 -514q15 -15 9 -34t-32 -19h-260q-36 0 -59 23l-434 397l-447 -397q-23 -23 -57 -23h-231q-28 0 -34 19t11 34l578 531l-529 485q-16 15 -10.5 35t31.5 20z" />
<glyph unicode="y" horiz-adv-x="1654" d="M1380 1124h230q22 0 29.5 -15.5t-3.5 -35.5l-786 -1386q-40 -72 -117 -106t-207 -34h-143q-37 0 -37 37v168q0 37 37 37h121q78 0 104 47l111 195q-49 4 -77 24t-54 64l-553 954q-11 20 -3.5 35.5t29.5 15.5h236q35 0 49 -28l455 -789q18 -29 27 -38t22 -9l481 836 q14 28 49 28z" />
<glyph unicode="z" horiz-adv-x="1501" d="M137 1124h1133q73 0 107 -31.5t34 -97.5v-151q0 -64 -18 -92.5t-74 -53.5l-909 -399q-17 -7 -17 -29v-14q0 -14 19 -14h952q37 0 37 -37v-168q0 -37 -37 -37h-1133q-73 0 -107 31t-34 96v152q0 64 18 93t74 54l910 399q16 5 16 27v14q0 17 -18 17h-953q-37 0 -37 37v167 q0 37 37 37z" />
<glyph unicode="{" horiz-adv-x="927" d="M682 1835h137q25 0 25 -29v-139q0 -29 -25 -29h-129q-84 0 -118.5 -39t-34.5 -135v-559q0 -135 -95 -217q95 -82 95 -215v-555q0 -96 34.5 -135t118.5 -39h129q25 0 25 -29v-139q0 -29 -25 -29h-137q-179 0 -259.5 87.5t-80.5 283.5v559q0 58 -22.5 85.5t-81.5 27.5h-93 q-36 0 -36 37v125q0 36 36 36h93q59 0 81.5 27.5t22.5 83.5v565q0 196 80.5 283.5t259.5 87.5z" />
<glyph unicode="|" horiz-adv-x="866" d="M371 1669h123q36 0 36 -37v-1894q0 -37 -36 -37h-123q-37 0 -37 37v1894q0 37 37 37z" />
<glyph unicode="}" horiz-adv-x="927" d="M246 -453h-137q-25 0 -25 29v139q0 29 25 29h129q84 0 118.5 39t34.5 135v559q0 136 94 217q-94 81 -94 215v555q0 96 -34.5 135t-118.5 39h-129q-25 0 -25 29v139q0 29 25 29h137q179 0 259.5 -87.5t80.5 -283.5v-559q0 -57 22.5 -84.5t81.5 -27.5h92q37 0 37 -37v-125 q0 -37 -37 -37h-92q-59 0 -81.5 -27.5t-22.5 -83.5v-565q0 -196 -80.5 -283.5t-259.5 -87.5z" />
<glyph unicode="~" horiz-adv-x="1255" d="M86 662v120q0 38 35 70q38 31 101.5 51.5t129.5 20.5q60 0 120.5 -16t97 -33t87.5 -46q110 -63 228 -63q49 0 88.5 16t87.5 58q18 16 25.5 21.5t19 10.5t24.5 5q39 0 39 -37v-119q0 -44 -36 -72q-38 -30 -102 -49.5t-130 -19.5q-86 0 -156.5 24.5t-146.5 67.5 q-113 63 -227 63q-50 0 -89.5 -15.5t-88.5 -57.5q-36 -31 -50 -35q-8 -2 -18 -2q-39 0 -39 37z" />
<glyph unicode="&#xa1;" horiz-adv-x="544" d="M387 -451h-229q-47 0 -47 48l57 921q2 24 12 34.5t33 10.5h119q23 0 33 -10.5t12 -34.5l57 -921q0 -48 -47 -48zM373 768h-201q-45 0 -45 45v197q0 45 45 45h201q47 0 47 -45v-197q0 -45 -47 -45z" />
<glyph unicode="&#xa2;" horiz-adv-x="1671" d="M856 1556h92q20 0 28.5 -8.5t8.5 -27.5v-154h461q37 0 37 -41v-190q0 -41 -37 -41h-461v-744h461q37 0 37 -41v-190q0 -41 -37 -41h-461v-164q0 -37 -37 -37h-92q-37 0 -37 37v164h-221q-189 0 -297 46t-153.5 141.5t-45.5 260.5v392q0 165 45.5 260.5t153.5 141.5 t297 46h221v154q0 36 37 36zM401 588q0 -138 46.5 -188t181.5 -50h190v744h-190q-135 0 -181.5 -50t-46.5 -188v-268z" />
<glyph unicode="&#xa3;" horiz-adv-x="1359" d="M94 811h199v207q0 226 89 321t304 95h541q45 0 45 -45v-183q0 -45 -45 -45h-477q-88 0 -122 -37.5t-34 -132.5v-180h448q37 0 37 -37v-94q0 -37 -37 -37h-448v-371h657q45 0 45 -45v-182q0 -45 -45 -45h-1157q-47 0 -47 45v182q0 45 47 45h199v371h-199q-37 0 -37 37v94 q0 37 37 37z" />
<glyph unicode="&#xa4;" horiz-adv-x="1523" d="M156 1237l86 84q26 27 53 0l113 -115q54 13 120 13h463q66 0 123 -13l115 115q27 27 53 0l86 -84q25 -28 0 -53l-115 -115q9 -37 9 -84v-541q0 -46 -9 -84l115 -112q24 -24 0 -51l-86 -86q-27 -24 -51 0l-115 112q-52 -12 -125 -12h-463q-78 0 -122 10l-111 -110 q-27 -24 -53 0l-86 86q-24 27 0 51l110 112q-6 38 -6 84v541q0 49 6 86l-110 113q-25 25 0 53zM451 926v-420q0 -71 21.5 -95t88.5 -24h400q66 0 88 24t22 95v420q0 68 -22.5 92t-87.5 24h-400q-67 0 -88.5 -23.5t-21.5 -92.5z" />
<glyph unicode="&#xa5;" horiz-adv-x="1579" d="M225 780h307l-448 613q-9 13 -4 27t20 14h258q28 0 45 -25l385 -537l390 537q17 25 45 25h250q15 0 20.5 -13t-4.5 -28l-451 -613h314q37 0 37 -37v-94q0 -37 -37 -37h-416v-206h416q37 0 37 -37v-93q0 -36 -37 -36h-416v-195q0 -45 -43 -45h-217q-41 0 -41 45v195h-410 q-37 0 -37 36v93q0 37 37 37h410v206h-410q-37 0 -37 37v94q0 37 37 37z" />
<glyph unicode="&#xa6;" horiz-adv-x="866" d="M371 1669h123q36 0 36 -37v-788q0 -37 -36 -37h-123q-37 0 -37 37v788q0 37 37 37zM371 563h123q36 0 36 -37v-788q0 -37 -36 -37h-123q-37 0 -37 37v788q0 37 37 37z" />
<glyph unicode="&#xa7;" horiz-adv-x="1501" d="M231 1538h1133q37 0 37 -37v-168q0 -37 -37 -37h-954q-17 0 -17 -16v-14q0 -22 17 -27l909 -395q56 -20 74 -51t18 -97v-151q0 -65 -35 -96t-108 -31h-854q-19 0 -19 -15v-14q0 -23 17 -29l909 -387q56 -20 74 -50.5t18 -96.5v-152q0 -65 -34 -96t-107 -31h-1133 q-37 0 -37 37v168q0 37 37 37h953q18 0 18 14v15q0 20 -16 28l-910 387q-56 20 -74 51t-18 97v151q0 65 34 96t107 31h857q18 0 18 15v14q0 21 -16 29l-912 395q-54 20 -72 49.5t-18 95.5v152q0 66 34 97.5t107 31.5z" />
<glyph unicode="&#xa8;" horiz-adv-x="1120" d="M745 1540h201q45 0 45 -45v-195q0 -47 -45 -47h-201q-45 0 -45 47v195q0 45 45 45zM174 1540h201q45 0 45 -45v-195q0 -47 -45 -47h-201q-47 0 -47 47v195q0 45 47 45z" />
<glyph unicode="&#xa9;" horiz-adv-x="2017" d="M692 1434h633q312 0 442.5 -123t130.5 -418v-352q0 -295 -130.5 -418t-442.5 -123h-633q-311 0 -442 123.5t-131 417.5v352q0 294 131 417.5t442 123.5zM272 893v-352q0 -211 96.5 -300t323.5 -89h633q227 0 323.5 89t96.5 300v352q0 210 -96 298.5t-324 88.5h-633 q-228 0 -324 -88.5t-96 -298.5zM874 1098h478q22 0 22 -23v-102q0 -25 -22 -25h-471q-82 0 -111 -30t-29 -113v-150q0 -85 29 -115t111 -30h471q22 0 22 -23v-104q0 -23 -22 -23h-478q-160 0 -227 63.5t-67 215.5v180q0 152 67 215.5t227 63.5z" />
<glyph unicode="&#xaa;" horiz-adv-x="958" d="M121 1434h485q150 0 209 -53t59 -181v-473q0 -56 -16.5 -74t-64.5 -18h-537q-99 0 -136.5 37.5t-37.5 126.5v155q0 76 38.5 113t135.5 37h438v59q0 57 -24.5 80t-91.5 23h-457q-21 0 -21 20v127q0 21 21 21zM666 793q15 0 21.5 7t6.5 27v144h-379q-31 0 -43 -12.5 t-12 -40.5v-68q0 -30 12 -43.5t43 -13.5h351z" />
<glyph unicode="&#xab;" horiz-adv-x="1095" d="M838 1124h155q23 0 31.5 -13t-0.5 -30l-227 -465q-13 -26 -13 -47v-14q0 -24 13 -47l227 -465q9 -17 0.5 -30t-31.5 -13h-155q-41 0 -56 35l-202 420q-25 54 -25 100v14q0 47 25 101l202 420q15 34 56 34zM348 1124h156q23 0 31.5 -13t-0.5 -30l-228 -465 q-12 -24 -12 -47v-14q0 -26 12 -47l228 -465q9 -17 0.5 -30t-31.5 -13h-156q-40 0 -55 35l-203 420q-24 52 -24 100v14q0 49 24 101l203 420q15 34 55 34z" />
<glyph unicode="&#xac;" horiz-adv-x="1255" d="M123 1126h1003q43 0 43 -43v-1046q0 -37 -36 -37h-123q-37 0 -37 37v895h-850q-37 0 -37 37v121q0 36 37 36z" />
<glyph unicode="&#xad;" horiz-adv-x="782" d="M82 815h616q37 0 37 -37v-147q0 -37 -37 -37h-616q-37 0 -37 37v147q0 37 37 37z" />
<glyph unicode="&#xae;" horiz-adv-x="2017" d="M692 1434h633q312 0 442.5 -123t130.5 -418v-352q0 -295 -130.5 -418t-442.5 -123h-633q-311 0 -442 123.5t-131 417.5v352q0 294 131 417.5t442 123.5zM272 893v-352q0 -211 96.5 -300t323.5 -89h633q227 0 323.5 89t96.5 300v352q0 210 -96 298.5t-324 88.5h-633 q-228 0 -324 -88.5t-96 -298.5zM631 1098h567q119 0 173 -53.5t54 -163.5v-60q0 -92 -37.5 -144t-119.5 -67l180 -223q6 -6 3 -16.5t-15 -10.5h-138q-19 0 -28 15l-168 219h-340v-211q0 -23 -23 -23h-114q-25 0 -25 23v684q0 31 31 31zM762 942v-219h403q53 0 76 22.5 t23 69.5v45q0 48 -23 71t-76 23h-389q-14 0 -14 -12z" />
<glyph unicode="&#xaf;" horiz-adv-x="1308" d="M174 1503h961q45 0 45 -45v-119q0 -45 -45 -45h-961q-47 0 -47 45v119q0 45 47 45z" />
<glyph unicode="&#xb0;" horiz-adv-x="1062" d="M406 1434h247q163 0 231 -64.5t68 -218.5v-182q0 -154 -68 -218.5t-231 -64.5h-247q-161 0 -229 64.5t-68 218.5v182q0 154 68 218.5t229 64.5zM299 1116v-112q0 -82 28.5 -112t106.5 -30h191q79 0 107 30t28 112v112q0 82 -28 110.5t-107 28.5h-191q-78 0 -106.5 -29 t-28.5 -110z" />
<glyph unicode="&#xb1;" horiz-adv-x="1255" d="M565 1372h123q37 0 37 -37v-405h408q36 0 36 -37v-123q0 -37 -36 -37h-408v-407q0 -37 -37 -37h-123q-37 0 -37 37v407h-405q-37 0 -37 37v123q0 37 37 37h405v405q0 37 37 37zM123 197h1010q36 0 36 -37v-123q0 -37 -36 -37h-1010q-37 0 -37 37v123q0 37 37 37z" />
<glyph unicode="&#xb2;" horiz-adv-x="1044" d="M154 1434h594q100 0 150 -49.5t50 -135.5v-84q0 -93 -51 -143.5t-147 -50.5h-418q-53 0 -53 -62v-82q0 -18 18 -18h623q26 0 26 -25v-114q0 -25 -26 -25h-719q-55 0 -79 22t-24 72v179q0 94 50.5 145t146.5 51h420q51 0 51 62v34q0 60 -53 60h-559q-27 0 -27 24v115 q0 25 27 25z" />
<glyph unicode="&#xb3;" horiz-adv-x="1021" d="M117 1434h592q110 0 157 -45t47 -142v-53q0 -89 -61 -141q68 -53 68 -148v-65q0 -96 -44 -145.5t-145 -49.5h-614q-25 0 -25 25v114q0 25 25 25h553q39 0 53 14.5t14 48.5v29q0 38 -14 55t-53 17h-545q-27 0 -27 24v95q0 24 27 24h545q38 0 52.5 15.5t14.5 48.5v26 q0 34 -14.5 49t-52.5 15h-553q-25 0 -25 24v115q0 25 25 25z" />
<glyph unicode="&#xb4;" horiz-adv-x="804" d="M418 1671h180q23 0 32.5 -12t-1.5 -35l-211 -379q-13 -25 -26.5 -36t-35.5 -11h-155q-24 0 -33.5 12.5t0.5 34.5l186 379q21 47 64 47z" />
<glyph unicode="&#xb6;" horiz-adv-x="1644" d="M530 1536h332q182 0 182 -174v-1776q0 -39 -40 -39h-170q-37 0 -37 39v985h-267q-227 0 -317 81t-90 276v254q0 194 89.5 274t317.5 80zM1309 1536h168q39 0 39 -39v-1911q0 -39 -39 -39h-168q-39 0 -39 39v1911q0 39 39 39zM371 973q0 -114 37.5 -154.5t146.5 -40.5h242 v475q0 76 -70 76h-172q-109 0 -146.5 -40t-37.5 -154v-162z" />
<glyph unicode="&#xb7;" horiz-adv-x="546" d="M174 862h201q45 0 45 -45v-196q0 -46 -45 -46h-201q-47 0 -47 46v196q0 45 47 45z" />
<glyph unicode="&#xb8;" horiz-adv-x="647" d="M289 -84h184q51 0 39 -53l-90 -373q-12 -47 -51 -47h-117q-50 0 -47 47l33 379q3 47 49 47z" />
<glyph unicode="&#xb9;" horiz-adv-x="497" d="M86 1434h174q64 0 92.5 -26.5t28.5 -84.5v-653q0 -25 -29 -25h-127q-24 0 -24 25v565q0 35 -35 35h-80q-25 0 -25 24v115q0 25 25 25z" />
<glyph unicode="&#xba;" horiz-adv-x="1048" d="M365 1434h319q149 0 208.5 -53t59.5 -181v-332q0 -127 -59.5 -180t-208.5 -53h-319q-150 0 -208.5 52.5t-58.5 180.5v332q0 128 58.5 181t208.5 53zM279 1145v-219q0 -73 23 -99t93 -26h258q69 0 93 26.5t24 98.5v219q0 71 -24.5 97t-92.5 26h-258q-69 0 -92.5 -25.5 t-23.5 -97.5z" />
<glyph unicode="&#xbb;" horiz-adv-x="1095" d="M592 1124h156q37 0 55 -34l203 -420q24 -52 24 -101v-14q0 -48 -24 -100l-203 -420q-18 -35 -55 -35h-156q-23 0 -31.5 13t0.5 30l227 465q11 19 11 47v14q0 25 -11 47l-227 465q-9 17 -0.5 30t31.5 13zM102 1124h156q37 0 55 -34l203 -420q25 -54 25 -101v-14 q0 -46 -25 -100l-203 -420q-18 -35 -55 -35h-156q-23 0 -31.5 13t1.5 30l227 465q10 18 10 47v14q0 27 -10 47l-227 465q-10 17 -1.5 30t31.5 13z" />
<glyph unicode="&#xbc;" horiz-adv-x="1925" d="M1315 1434h127q16 0 20 -12.5t-6 -24.5l-1106 -1377q-17 -20 -55 -20h-125q-17 0 -21.5 12.5t5.5 24.5l1106 1376q18 21 55 21zM213 1434h174q64 0 92.5 -26.5t28.5 -84.5v-653q0 -25 -29 -25h-127q-24 0 -24 25v565q0 35 -35 35h-80q-25 0 -25 24v115q0 25 25 25z M905 412l484 340q30 22 55 29t67 7h74q55 0 80 -25.5t25 -94.5v-371h90q24 0 24 -25v-104q0 -27 -24 -27h-90v-116q0 -25 -29 -25h-127q-25 0 -25 25v116h-573q-39 0 -59.5 20.5t-20.5 53.5v94q0 70 49 103zM1055 307q0 -10 10 -10h444v315q0 15 -12 15h-8q-15 0 -31 -11 l-393 -278q-10 -5 -10 -21v-10z" />
<glyph unicode="&#xbd;" horiz-adv-x="2048" d="M1315 1434h127q16 0 20 -12.5t-6 -24.5l-1106 -1377q-17 -20 -55 -20h-125q-17 0 -21.5 12.5t5.5 24.5l1106 1376q18 21 55 21zM213 1434h174q64 0 92.5 -26.5t28.5 -84.5v-653q0 -25 -29 -25h-127q-24 0 -24 25v565q0 35 -35 35h-80q-25 0 -25 24v115q0 25 25 25z M1135 788h594q100 0 150 -49t50 -135v-84q0 -93 -51 -143.5t-147 -50.5h-418q-53 0 -53 -62v-82q0 -18 18 -18h623q26 0 26 -25v-114q0 -25 -26 -25h-719q-55 0 -79 22t-24 72v178q0 94 50.5 145.5t146.5 51.5h420q51 0 51 61v35q0 60 -53 60h-559q-27 0 -27 24v115 q0 24 27 24z" />
<glyph unicode="&#xbe;" horiz-adv-x="2349" d="M1739 1434h127q16 0 20 -12.5t-6 -24.5l-1106 -1377q-17 -20 -55 -20h-125q-17 0 -21.5 12.5t5.5 24.5l1105 1376q18 21 56 21zM1329 412l483 340q30 21 55.5 28.5t67.5 7.5h74q55 0 80 -25.5t25 -94.5v-371h90q24 0 24 -25v-104q0 -27 -24 -27h-90v-116q0 -25 -29 -25 h-127q-25 0 -25 25v116h-573q-39 0 -59.5 20.5t-20.5 53.5v94q0 70 49 103zM1479 307q0 -10 10 -10h444v315q0 15 -12 15h-8q-14 0 -31 -11l-393 -278q-10 -5 -10 -21v-10zM145 1434h592q110 0 157.5 -45t47.5 -142v-53q0 -89 -61 -141q67 -52 67 -148v-65 q0 -96 -43.5 -145.5t-144.5 -49.5h-615q-24 0 -24 25v114q0 25 24 25h553q40 0 54 14.5t14 48.5v29q0 38 -14.5 55t-53.5 17h-544q-27 0 -27 24v95q0 24 27 24h544q38 0 53 15.5t15 48.5v26q0 34 -15 49t-53 15h-553q-24 0 -24 24v115q0 25 24 25z" />
<glyph unicode="&#xbf;" horiz-adv-x="1292" d="M858 768h-201q-47 0 -47 45v197q0 45 47 45h201q45 0 45 -45v-197q0 -45 -45 -45zM1184 -451h-842q-279 0 -279 277v86q0 123 41 187t148 116l338 162q29 13 40.5 33t14.5 51l6 51q3 31 15.5 41t46.5 10h90q32 0 44.5 -12t12.5 -39l2 -100q0 -63 -18 -105.5t-72 -70.5 l-348 -181q-34 -17 -49 -42t-15 -66v-53q0 -87 89 -87h735q45 0 45 -45v-168q0 -45 -45 -45z" />
<glyph unicode="&#xc0;" horiz-adv-x="1996" d="M924 1434h120q81 0 134 -33.5t102 -122.5l678 -1231q11 -20 5 -33.5t-30 -13.5h-260q-20 0 -29.5 6t-17.5 21l-145 264h-963l-141 -264q-13 -27 -47 -27h-267q-50 0 -26 47l672 1231q49 89 98 122.5t117 33.5zM969 1128l-322 -600h705l-326 600q-9 15 -22 15h-13 q-13 0 -22 -15zM737 1876h183q41 0 63 -39l184 -301q10 -19 1.5 -29t-33.5 -10h-156q-22 0 -35 9t-26 30l-209 301q-12 19 -3 29t31 10z" />
<glyph unicode="&#xc1;" horiz-adv-x="1996" d="M924 1434h120q81 0 134 -33.5t102 -122.5l678 -1231q11 -20 5 -33.5t-30 -13.5h-260q-20 0 -29.5 6t-17.5 21l-145 264h-963l-141 -264q-13 -27 -47 -27h-267q-50 0 -26 47l672 1231q49 89 98 122.5t117 33.5zM969 1128l-322 -600h705l-326 600q-9 15 -22 15h-13 q-13 0 -22 -15zM1075 1876h182q23 0 32 -10t-3 -29l-209 -301q-13 -21 -26 -30t-35 -9h-156q-24 0 -33 10t2 29l183 301q22 39 63 39z" />
<glyph unicode="&#xc2;" horiz-adv-x="1996" d="M924 1434h120q81 0 134 -33.5t102 -122.5l678 -1231q11 -20 5 -33.5t-30 -13.5h-260q-20 0 -29.5 6t-17.5 21l-145 264h-963l-141 -264q-13 -27 -47 -27h-267q-50 0 -26 47l672 1231q49 89 98 122.5t117 33.5zM969 1128l-322 -600h705l-326 600q-9 15 -22 15h-13 q-13 0 -22 -15zM907 1876h183q33 0 52.5 -10.5t37.5 -34.5l215 -291q13 -19 4.5 -31t-29.5 -12h-160q-41 0 -63 37l-117 176q-8 16 -26 16h-9q-18 0 -26 -16l-119 -176q-19 -37 -64 -37h-157q-23 0 -31.5 12t4.5 31l217 291q29 45 88 45z" />
<glyph unicode="&#xc3;" horiz-adv-x="1996" d="M924 1434h120q81 0 134 -33.5t102 -122.5l678 -1231q11 -20 5 -33.5t-30 -13.5h-260q-20 0 -29.5 6t-17.5 21l-145 264h-963l-141 -264q-13 -27 -47 -27h-267q-50 0 -26 47l672 1231q49 89 98 122.5t117 33.5zM969 1128l-322 -600h705l-326 600q-9 15 -22 15h-13 q-13 0 -22 -15zM623 1522h-115q-24 0 -30.5 12.5t-6.5 46.5q0 164 58 225.5t198 61.5q106 0 186 -28.5t152 -86.5q39 -34 70.5 -48.5t85.5 -14.5q59 0 75.5 27t18.5 114q3 45 55 45h117q22 0 29.5 -12.5t7.5 -46.5q0 -163 -59 -225t-199 -62q-105 0 -184.5 28.5t-151.5 86.5 q-29 24 -45.5 35t-45.5 19.5t-67 8.5q-58 0 -75 -27.5t-17 -113.5q-3 -45 -57 -45z" />
<glyph unicode="&#xc4;" horiz-adv-x="1996" d="M924 1434h120q81 0 134 -33.5t102 -122.5l678 -1231q11 -20 5 -33.5t-30 -13.5h-260q-20 0 -29.5 6t-17.5 21l-145 264h-963l-141 -264q-13 -27 -47 -27h-267q-50 0 -26 47l672 1231q49 89 98 122.5t117 33.5zM969 1128l-322 -600h705l-326 600q-9 15 -22 15h-13 q-13 0 -22 -15zM612 1812h201q45 0 45 -36v-195q0 -37 -45 -37h-201q-45 0 -45 37v195q0 36 45 36zM1184 1812h200q48 0 48 -36v-195q0 -37 -48 -37h-200q-45 0 -45 37v195q0 36 45 36z" />
<glyph unicode="&#xc5;" horiz-adv-x="1996" d="M924 1434h120q81 0 134 -33.5t102 -122.5l678 -1231q11 -20 5 -33.5t-30 -13.5h-260q-20 0 -29.5 6t-17.5 21l-145 264h-963l-141 -264q-13 -27 -47 -27h-267q-50 0 -26 47l672 1231q49 89 98 122.5t117 33.5zM969 1128l-322 -600h705l-326 600q-9 15 -22 15h-13 q-13 0 -22 -15zM897 1876h199q115 0 163 -36.5t48 -123.5v-102q0 -87 -48 -123.5t-163 -36.5h-199q-114 0 -161.5 36.5t-47.5 123.5v102q0 87 47.5 123.5t161.5 36.5zM838 1694v-60q0 -40 18 -54.5t70 -14.5h143q52 0 70 14.5t18 54.5v60q0 42 -18 56.5t-70 14.5h-143 q-52 0 -70 -14.5t-18 -56.5z" />
<glyph unicode="&#xc6;" horiz-adv-x="2764" d="M924 1434h1693q45 0 45 -45v-195q0 -45 -45 -45h-1071v-301h1059q45 0 45 -45v-160q0 -47 -45 -47h-1059v-33q0 -161 57.5 -219.5t215.5 -58.5h798q45 0 45 -45v-195q0 -45 -45 -45h-802q-237 0 -366.5 68t-176.5 223h-754l-141 -264q-13 -27 -47 -27h-267q-50 0 -26 47 l672 1231q47 89 96.5 122.5t118.5 33.5zM971 1135l-326 -607h596v621h-246q-13 0 -24 -14z" />
<glyph unicode="&#xc7;" horiz-adv-x="1744" d="M692 1434h924q45 0 45 -45v-201q0 -47 -45 -47h-911q-159 0 -216 -58.5t-57 -220.5v-291q0 -163 57.5 -221.5t215.5 -58.5h911q45 0 45 -45v-201q0 -45 -45 -45h-924q-311 0 -442 123.5t-131 417.5v352q0 294 131 417.5t442 123.5zM866 -84h185q51 0 39 -53l-91 -373 q-12 -47 -51 -47h-117q-50 0 -47 47l33 379q3 47 49 47z" />
<glyph unicode="&#xc8;" horiz-adv-x="1740" d="M692 1434h901q47 0 47 -45v-195q0 -45 -47 -45h-895q-159 0 -215.5 -58.5t-56.5 -220.5v-20h1157q45 0 45 -45v-162q0 -45 -45 -45h-1157v-35q0 -162 56.5 -220t215.5 -58h895q47 0 47 -45v-195q0 -45 -47 -45h-901q-311 0 -442 123.5t-131 417.5v352q0 294 131 417.5 t442 123.5zM694 1876h183q41 0 63 -39l184 -301q10 -19 1.5 -29t-33.5 -10h-156q-39 0 -62 39l-208 301q-12 19 -3 29t31 10z" />
<glyph unicode="&#xc9;" horiz-adv-x="1740" d="M692 1434h901q47 0 47 -45v-195q0 -45 -47 -45h-895q-159 0 -215.5 -58.5t-56.5 -220.5v-20h1157q45 0 45 -45v-162q0 -45 -45 -45h-1157v-35q0 -162 56.5 -220t215.5 -58h895q47 0 47 -45v-195q0 -45 -47 -45h-901q-311 0 -442 123.5t-131 417.5v352q0 294 131 417.5 t442 123.5zM1032 1876h182q23 0 32 -10t-3 -29l-209 -301q-13 -21 -26 -30t-35 -9h-156q-24 0 -33 10t2 29l183 301q22 39 63 39z" />
<glyph unicode="&#xca;" horiz-adv-x="1740" d="M692 1434h901q47 0 47 -45v-195q0 -45 -47 -45h-895q-159 0 -215.5 -58.5t-56.5 -220.5v-20h1157q45 0 45 -45v-162q0 -45 -45 -45h-1157v-35q0 -162 56.5 -220t215.5 -58h895q47 0 47 -45v-195q0 -45 -47 -45h-901q-311 0 -442 123.5t-131 417.5v352q0 294 131 417.5 t442 123.5zM862 1876h182q58 0 91 -45l215 -291q13 -19 4.5 -31t-29.5 -12h-160q-41 0 -63 37l-117 176q-8 16 -27 16h-8q-18 0 -26 -16l-119 -176q-19 -37 -64 -37h-157q-23 0 -31.5 12t4.5 31l217 291q29 45 88 45z" />
<glyph unicode="&#xcb;" horiz-adv-x="1740" d="M692 1434h901q47 0 47 -45v-195q0 -45 -47 -45h-895q-159 0 -215.5 -58.5t-56.5 -220.5v-20h1157q45 0 45 -45v-162q0 -45 -45 -45h-1157v-35q0 -162 56.5 -220t215.5 -58h895q47 0 47 -45v-195q0 -45 -47 -45h-901q-311 0 -442 123.5t-131 417.5v352q0 294 131 417.5 t442 123.5zM565 1812h201q45 0 45 -36v-195q0 -37 -45 -37h-201q-45 0 -45 37v195q0 36 45 36zM1137 1812h200q47 0 47 -36v-195q0 -37 -47 -37h-200q-45 0 -45 37v195q0 36 45 36z" />
<glyph unicode="&#xcc;" horiz-adv-x="591" d="M186 1434h222q45 0 45 -45v-1344q0 -45 -45 -45h-222q-47 0 -47 45v1344q0 45 47 45zM37 1876h182q42 0 64 -39l184 -301q10 -19 1 -29t-34 -10h-155q-39 0 -62 39l-209 301q-12 19 -2.5 29t31.5 10z" />
<glyph unicode="&#xcd;" horiz-adv-x="591" d="M182 1434h221q46 0 46 -45v-1344q0 -45 -46 -45h-221q-47 0 -47 45v1344q0 45 47 45zM371 1876h182q23 0 32 -10t-3 -29l-209 -301q-23 -39 -62 -39h-155q-24 0 -33 10t2 29l182 301q22 39 64 39z" />
<glyph unicode="&#xce;" horiz-adv-x="761" d="M270 1434h222q45 0 45 -45v-1344q0 -45 -45 -45h-222q-47 0 -47 45v1344q0 45 47 45zM289 1876h182q33 0 52.5 -10.5t37.5 -34.5l215 -291q13 -19 5 -31t-29 -12h-160q-42 0 -64 37l-116 176q-8 16 -27 16h-8q-19 0 -27 -16l-119 -176q-19 -37 -63 -37h-158 q-22 0 -30.5 12t4.5 31l217 291q29 45 88 45z" />
<glyph unicode="&#xcf;" horiz-adv-x="780" d="M279 1434h221q45 0 45 -45v-1344q0 -45 -45 -45h-221q-48 0 -48 45v1344q0 45 48 45zM530 1812h201q45 0 45 -36v-195q0 -37 -45 -37h-201q-45 0 -45 37v195q0 36 45 36zM49 1812h201q45 0 45 -36v-195q0 -37 -45 -37h-201q-45 0 -45 37v195q0 36 45 36z" />
<glyph unicode="&#xd0;" horiz-adv-x="2013" d="M309 1434h959q331 0 478.5 -138.5t147.5 -439.5v-278q0 -301 -147.5 -439.5t-478.5 -138.5h-959q-61 0 -61 61v537h-176q-45 0 -45 45v162q0 45 45 45h176v522q0 62 61 62zM561 1120v-270h696q46 0 46 -45v-162q0 -45 -46 -45h-696v-287q0 -26 27 -26h672q182 0 251.5 69 t69.5 250v225q0 181 -69.5 250.5t-251.5 69.5h-672q-27 0 -27 -29z" />
<glyph unicode="&#xd1;" horiz-adv-x="2002" d="M319 1434h181q97 0 137.5 -21t99.5 -100l762 -1000q8 -14 27 -14h18q17 0 17 20v1070q0 45 45 45h215q45 0 45 -45v-1176q0 -120 -43.5 -166.5t-141.5 -46.5h-176q-95 0 -135.5 20t-101.5 101l-764 999q-12 15 -27 15h-18q-17 0 -17 -21v-1069q0 -45 -45 -45h-215 q-47 0 -47 45v1176q0 120 43 166.5t141 46.5zM629 1522h-115q-24 0 -30.5 12.5t-6.5 46.5q0 164 58 225.5t198 61.5q106 0 186 -28.5t152 -86.5q39 -34 70.5 -48.5t85.5 -14.5q59 0 75.5 27t18.5 114q3 45 55 45h117q22 0 29.5 -12.5t7.5 -46.5q0 -163 -59 -225t-199 -62 q-105 0 -184.5 28.5t-151.5 86.5q-29 24 -45.5 35t-45.5 19.5t-67 8.5q-58 0 -75 -27.5t-17 -113.5q-3 -45 -57 -45z" />
<glyph unicode="&#xd2;" horiz-adv-x="2017" d="M692 1434h633q312 0 442.5 -123t130.5 -418v-352q0 -295 -130.5 -418t-442.5 -123h-633q-311 0 -442 123.5t-131 417.5v352q0 294 131 417.5t442 123.5zM432 870v-307q0 -161 57.5 -219.5t215.5 -58.5h608q158 0 215 58.5t57 219.5v307q0 162 -57 220.5t-215 58.5h-608 q-158 0 -215.5 -59t-57.5 -220zM739 1876h183q41 0 63 -39l184 -301q10 -19 1.5 -29t-33.5 -10h-156q-22 0 -35 9t-26 30l-209 301q-12 19 -3 29t31 10z" />
<glyph unicode="&#xd3;" horiz-adv-x="2017" d="M692 1434h633q312 0 442.5 -123t130.5 -418v-352q0 -295 -130.5 -418t-442.5 -123h-633q-311 0 -442 123.5t-131 417.5v352q0 294 131 417.5t442 123.5zM432 870v-307q0 -161 57.5 -219.5t215.5 -58.5h608q158 0 215 58.5t57 219.5v307q0 162 -57 220.5t-215 58.5h-608 q-158 0 -215.5 -59t-57.5 -220zM1083 1876h183q23 0 31.5 -10t-3.5 -29l-209 -301q-13 -21 -26 -30t-35 -9h-156q-24 0 -32.5 10t2.5 29l182 301q22 39 63 39z" />
<glyph unicode="&#xd4;" horiz-adv-x="2017" d="M692 1434h633q312 0 442.5 -123t130.5 -418v-352q0 -295 -130.5 -418t-442.5 -123h-633q-311 0 -442 123.5t-131 417.5v352q0 294 131 417.5t442 123.5zM432 870v-307q0 -161 57.5 -219.5t215.5 -58.5h608q158 0 215 58.5t57 219.5v307q0 162 -57 220.5t-215 58.5h-608 q-158 0 -215.5 -59t-57.5 -220zM915 1876h183q33 0 52.5 -10.5t37.5 -34.5l215 -291q13 -19 4.5 -31t-29.5 -12h-159q-42 0 -64 37l-117 176q-8 16 -26 16h-8q-19 0 -27 -16l-119 -176q-19 -37 -63 -37h-158q-23 0 -31.5 12t4.5 31l217 291q29 45 88 45z" />
<glyph unicode="&#xd5;" horiz-adv-x="2017" d="M692 1434h633q312 0 442.5 -123t130.5 -418v-352q0 -295 -130.5 -418t-442.5 -123h-633q-311 0 -442 123.5t-131 417.5v352q0 294 131 417.5t442 123.5zM432 870v-307q0 -161 57.5 -219.5t215.5 -58.5h608q158 0 215 58.5t57 219.5v307q0 162 -57 220.5t-215 58.5h-608 q-158 0 -215.5 -59t-57.5 -220zM635 1522h-115q-24 0 -30.5 12.5t-6.5 46.5q0 164 58 225.5t198 61.5q106 0 186 -28.5t152 -86.5q39 -34 70.5 -48.5t85.5 -14.5q59 0 75.5 27t18.5 114q3 45 55 45h117q22 0 29.5 -12.5t7.5 -46.5q0 -163 -59 -225t-199 -62 q-105 0 -184.5 28.5t-151.5 86.5q-29 24 -45.5 35t-45.5 19.5t-67 8.5q-58 0 -75 -27.5t-17 -113.5q-3 -45 -57 -45z" />
<glyph unicode="&#xd6;" horiz-adv-x="2017" d="M692 1434h633q312 0 442.5 -123t130.5 -418v-352q0 -295 -130.5 -418t-442.5 -123h-633q-311 0 -442 123.5t-131 417.5v352q0 294 131 417.5t442 123.5zM432 870v-307q0 -161 57.5 -219.5t215.5 -58.5h608q158 0 215 58.5t57 219.5v307q0 162 -57 220.5t-215 58.5h-608 q-158 0 -215.5 -59t-57.5 -220zM623 1812h200q45 0 45 -36v-195q0 -37 -45 -37h-200q-45 0 -45 37v195q0 36 45 36zM1194 1812h201q47 0 47 -36v-195q0 -37 -47 -37h-201q-45 0 -45 37v195q0 36 45 36z" />
<glyph unicode="&#xd7;" horiz-adv-x="1255" d="M129 1128l86 89q25 25 53 0l359 -361l360 361q25 25 51 0l88 -89q26 -26 0 -51l-360 -360l360 -361q28 -25 0 -53l-86 -86q-28 -25 -53 0l-360 361l-361 -361q-26 -25 -51 0l-88 86q-25 28 0 53l360 361l-358 360q-29 25 0 51z" />
<glyph unicode="&#xd8;" horiz-adv-x="2017" d="M692 1434h633q41 0 111 -4l133 176q25 32 65 32h123q18 0 24 -12t-7 -27l-154 -204q147 -49 212.5 -169.5t65.5 -332.5v-352q0 -295 -130.5 -418t-442.5 -123h-633q-77 0 -114 4l-132 -176q-26 -33 -65 -33h-123q-18 0 -23.5 11t7.5 28l153 205q-146 49 -211 169t-65 333 v352q0 294 131 417.5t442 123.5zM1585 870q0 128 -35 189.5t-123 79.5l-639 -854h525q158 0 215 58.5t57 219.5v307zM432 870v-307q0 -128 34 -190t120 -80l641 856h-522q-158 0 -215.5 -59t-57.5 -220z" />
<glyph unicode="&#xd9;" horiz-adv-x="2000" d="M178 1434h221q45 0 45 -45v-818q0 -163 57.5 -221.5t215.5 -58.5h567q158 0 214 58.5t56 221.5v818q0 45 45 45h224q45 0 45 -45v-848q0 -295 -131 -418t-443 -123h-589q-311 0 -442.5 123.5t-131.5 417.5v848q0 45 47 45zM739 1876h183q41 0 63 -39l184 -301 q10 -19 1.5 -29t-33.5 -10h-156q-22 0 -35 9t-26 30l-209 301q-12 19 -3 29t31 10z" />
<glyph unicode="&#xda;" horiz-adv-x="2000" d="M178 1434h221q45 0 45 -45v-818q0 -163 57.5 -221.5t215.5 -58.5h567q158 0 214 58.5t56 221.5v818q0 45 45 45h224q45 0 45 -45v-848q0 -295 -131 -418t-443 -123h-589q-311 0 -442.5 123.5t-131.5 417.5v848q0 45 47 45zM1075 1876h182q23 0 32 -10t-3 -29l-209 -301 q-13 -21 -26 -30t-35 -9h-156q-24 0 -33 10t2 29l183 301q22 39 63 39z" />
<glyph unicode="&#xdb;" horiz-adv-x="2000" d="M178 1434h221q45 0 45 -45v-818q0 -163 57.5 -221.5t215.5 -58.5h567q158 0 214 58.5t56 221.5v818q0 45 45 45h224q45 0 45 -45v-848q0 -295 -131 -418t-443 -123h-589q-311 0 -442.5 123.5t-131.5 417.5v848q0 45 47 45zM907 1876h183q33 0 52.5 -10.5t37.5 -34.5 l215 -291q13 -19 4.5 -31t-29.5 -12h-160q-41 0 -63 37l-117 176q-8 16 -26 16h-9q-18 0 -26 -16l-119 -176q-19 -37 -64 -37h-157q-23 0 -31.5 12t4.5 31l217 291q29 45 88 45z" />
<glyph unicode="&#xdc;" horiz-adv-x="2000" d="M178 1434h221q45 0 45 -45v-818q0 -163 57.5 -221.5t215.5 -58.5h567q158 0 214 58.5t56 221.5v818q0 45 45 45h224q45 0 45 -45v-848q0 -295 -131 -418t-443 -123h-589q-311 0 -442.5 123.5t-131.5 417.5v848q0 45 47 45zM612 1812h201q45 0 45 -36v-195q0 -37 -45 -37 h-201q-45 0 -45 37v195q0 36 45 36zM1184 1812h200q48 0 48 -36v-195q0 -37 -48 -37h-200q-45 0 -45 37v195q0 36 45 36z" />
<glyph unicode="&#xdd;" horiz-adv-x="1835" d="M49 1434h275q32 0 49 -25l547 -739l550 739q17 25 50 25h268q17 0 23 -14t-5 -27l-735 -955v-393q0 -45 -45 -45h-221q-47 0 -47 45v393l-727 955q-11 13 -5.5 27t23.5 14zM995 1876h183q23 0 31.5 -10t-3.5 -29l-209 -301q-13 -21 -26 -30t-35 -9h-156q-24 0 -32.5 10 t2.5 29l182 301q22 39 63 39z" />
<glyph unicode="&#xde;" horiz-adv-x="1818" d="M182 1434h221q46 0 46 -45v-220h856q227 0 329.5 -101.5t102.5 -307.5v-119q0 -206 -102.5 -308t-329.5 -102h-856v-186q0 -45 -46 -45h-221q-47 0 -47 45v1344q0 45 47 45zM449 899v-397h794q98 0 139 41t41 131v53q0 90 -41 131t-139 41h-794z" />
<glyph unicode="&#xdf;" horiz-adv-x="1875" d="M543 1575h227q118 0 195 -22.5t122.5 -74t64 -125t19.5 -186.5v-200q0 -48 22 -71.5t73 -23.5h178q169 0 244 -75t75 -244v-221q0 -168 -73.5 -250t-247.5 -82h-770q-37 0 -37 37v168q0 37 37 37h669q69 0 100.5 33t31.5 100v131q0 67 -33 98t-101 31h-157 q-161 0 -232 67.5t-71 206.5v258q0 88 -34.5 127t-125.5 39h-127q-96 0 -133 -39t-37 -127v-1122q0 -45 -45 -45h-201q-47 0 -47 45v1122q0 113 19 186.5t66 125t127 74t202 22.5z" />
<glyph unicode="&#xe0;" d="M154 1124h884q185 0 291.5 -43t151.5 -131.5t45 -240.5v-545q0 -99 -31 -131.5t-121 -32.5h-975q-177 0 -246 67.5t-69 223.5v98q0 136 70.5 202t244.5 66h834v39q0 101 -46.5 142t-176.5 41h-856q-37 0 -37 36v172q0 37 37 37zM1174 225q32 0 45.5 16t13.5 54v180h-750 q-61 0 -87.5 -24.5t-26.5 -75.5v-43q0 -56 26 -81.5t88 -25.5h691zM555 1671h180q43 0 64 -47l186 -379q10 -22 1 -34.5t-34 -12.5h-153q-23 0 -37 11t-27 36l-211 379q-11 23 -1.5 35t32.5 12z" />
<glyph unicode="&#xe1;" d="M154 1124h884q185 0 291.5 -43t151.5 -131.5t45 -240.5v-545q0 -99 -31 -131.5t-121 -32.5h-975q-177 0 -246 67.5t-69 223.5v98q0 136 70.5 202t244.5 66h834v39q0 101 -46.5 142t-176.5 41h-856q-37 0 -37 36v172q0 37 37 37zM1174 225q32 0 45.5 16t13.5 54v180h-750 q-61 0 -87.5 -24.5t-26.5 -75.5v-43q0 -56 26 -81.5t88 -25.5h691zM889 1671h180q23 0 32.5 -12t-1.5 -35l-211 -379q-13 -25 -26.5 -36t-35.5 -11h-155q-24 0 -33.5 12.5t0.5 34.5l186 379q21 47 64 47z" />
<glyph unicode="&#xe2;" d="M154 1124h884q185 0 291.5 -43t151.5 -131.5t45 -240.5v-545q0 -99 -31 -131.5t-121 -32.5h-975q-177 0 -246 67.5t-69 223.5v98q0 136 70.5 202t244.5 66h834v39q0 101 -46.5 142t-176.5 41h-856q-37 0 -37 36v172q0 37 37 37zM1174 225q32 0 45.5 16t13.5 54v180h-750 q-61 0 -87.5 -24.5t-26.5 -75.5v-43q0 -56 26 -81.5t88 -25.5h691zM715 1671h182q33 0 53 -12t35 -39l217 -371q13 -22 4.5 -36.5t-30.5 -14.5h-158q-44 0 -64 45l-118 227q-10 19 -25 19h-8q-17 0 -27 -19l-119 -227q-20 -45 -63 -45h-158q-22 0 -30.5 14.5t4.5 36.5 l217 371q15 27 35 39t53 12z" />
<glyph unicode="&#xe3;" d="M154 1124h884q185 0 291.5 -43t151.5 -131.5t45 -240.5v-545q0 -99 -31 -131.5t-121 -32.5h-975q-177 0 -246 67.5t-69 223.5v98q0 136 70.5 202t244.5 66h834v39q0 101 -46.5 142t-176.5 41h-856q-37 0 -37 36v172q0 37 37 37zM1174 225q32 0 45.5 16t13.5 54v180h-750 q-61 0 -87.5 -24.5t-26.5 -75.5v-43q0 -56 26 -81.5t88 -25.5h691zM434 1233h-115q-24 0 -31 13t-7 50q0 177 58.5 244.5t197.5 67.5q107 0 186 -30.5t154 -92.5q26 -24 42.5 -35.5t45.5 -21t67 -9.5q60 0 76 28t16 118q3 49 58 49h114q24 0 30.5 -13t6.5 -51 q0 -177 -57.5 -244t-196.5 -67q-107 0 -186 30.5t-154 92.5q-38 34 -69.5 49.5t-85.5 15.5q-60 0 -76.5 -28t-18.5 -117q0 -49 -55 -49z" />
<glyph unicode="&#xe4;" d="M154 1124h884q185 0 291.5 -43t151.5 -131.5t45 -240.5v-545q0 -99 -31 -131.5t-121 -32.5h-975q-177 0 -246 67.5t-69 223.5v98q0 136 70.5 202t244.5 66h834v39q0 101 -46.5 142t-176.5 41h-856q-37 0 -37 36v172q0 37 37 37zM1174 225q32 0 45.5 16t13.5 54v180h-750 q-61 0 -87.5 -24.5t-26.5 -75.5v-43q0 -56 26 -81.5t88 -25.5h691zM993 1540h201q45 0 45 -45v-195q0 -47 -45 -47h-201q-45 0 -45 47v195q0 45 45 45zM422 1540h201q45 0 45 -45v-195q0 -47 -45 -47h-201q-47 0 -47 47v195q0 45 47 45z" />
<glyph unicode="&#xe5;" d="M154 1124h884q185 0 291.5 -43t151.5 -131.5t45 -240.5v-545q0 -99 -31 -131.5t-121 -32.5h-975q-177 0 -246 67.5t-69 223.5v98q0 136 70.5 202t244.5 66h834v39q0 101 -46.5 142t-176.5 41h-856q-37 0 -37 36v172q0 37 37 37zM1174 225q32 0 45.5 16t13.5 54v180h-750 q-61 0 -87.5 -24.5t-26.5 -75.5v-43q0 -56 26 -81.5t88 -25.5h691zM694 1671h232q114 0 162.5 -45.5t48.5 -152.5v-130q0 -107 -48.5 -152.5t-162.5 -45.5h-232q-114 0 -162.5 45.5t-48.5 152.5v130q0 107 48.5 152.5t162.5 45.5zM635 1446v-76q0 -53 18 -71.5t70 -18.5h176 q51 0 68.5 18.5t17.5 71.5v76q0 53 -17.5 71.5t-68.5 18.5h-176q-52 0 -70 -18.5t-18 -71.5z" />
<glyph unicode="&#xe6;" horiz-adv-x="2772" d="M1731 1124h600q141 0 217.5 -33.5t106.5 -103.5t30 -199v-194q0 -64 -27.5 -90.5t-89.5 -26.5h-1034v-49q0 -100 47.5 -141t177.5 -41h854q37 0 37 -37v-172q0 -37 -37 -37h-895q-140 0 -243 25q-35 -25 -113 -25h-963q-177 0 -246 67.5t-69 223.5v98q0 136 70.5 202 t244.5 66h834v39q0 101 -46.5 142t-176.5 41h-856q-37 0 -37 36v172q0 37 37 37h884q231 0 346 -69q112 69 347 69zM1174 225q32 0 45.5 16t13.5 54v180h-750q-61 0 -87.5 -24.5t-26.5 -75.5v-43q0 -56 26 -81.5t88 -25.5h691zM1534 715v-56h829q19 0 27 7.5t8 27.5v86 q0 64 -27.5 90.5t-97.5 26.5h-514q-130 0 -177.5 -40.5t-47.5 -141.5z" />
<glyph unicode="&#xe7;" horiz-adv-x="1492" d="M567 1124h824q36 0 36 -37v-172q0 -20 -8.5 -28t-27.5 -8h-795q-132 0 -177.5 -47.5t-45.5 -178.5v-182q0 -131 45.5 -178t177.5 -47h795q36 0 36 -37v-172q0 -37 -36 -37h-824q-185 0 -291 42.5t-151 131t-45 240.5v295q0 152 45 240.5t151 131.5t291 43zM713 -84h184 q51 0 39 -53l-90 -373q-12 -47 -51 -47h-117q-50 0 -47 47l33 379q3 47 49 47z" />
<glyph unicode="&#xe8;" d="M571 1124h600q106 0 174 -17t108.5 -58.5t56.5 -103t16 -157.5v-194q0 -64 -27.5 -90.5t-89.5 -26.5h-1034v-49q0 -100 47.5 -141t177.5 -41h854q37 0 37 -37v-172q0 -37 -37 -37h-883q-185 0 -291 42.5t-151 131t-45 240.5v295q0 152 45 240.5t151 131.5t291 43z M375 715v-56h829q19 0 27 7.5t8 27.5v86q0 64 -27.5 90.5t-97.5 26.5h-514q-130 0 -177.5 -40.5t-47.5 -141.5zM549 1671h180q43 0 64 -47l186 -379q10 -22 1 -34.5t-34 -12.5h-153q-23 0 -37 11t-27 36l-211 379q-11 23 -1.5 35t32.5 12z" />
<glyph unicode="&#xe9;" d="M571 1124h600q106 0 174 -17t108.5 -58.5t56.5 -103t16 -157.5v-194q0 -64 -27.5 -90.5t-89.5 -26.5h-1034v-49q0 -100 47.5 -141t177.5 -41h854q37 0 37 -37v-172q0 -37 -37 -37h-883q-185 0 -291 42.5t-151 131t-45 240.5v295q0 152 45 240.5t151 131.5t291 43z M375 715v-56h829q19 0 27 7.5t8 27.5v86q0 64 -27.5 90.5t-97.5 26.5h-514q-130 0 -177.5 -40.5t-47.5 -141.5zM887 1671h180q23 0 32.5 -12t-1.5 -35l-211 -379q-13 -25 -26.5 -36t-35.5 -11h-155q-24 0 -33.5 12.5t0.5 34.5l186 379q21 47 64 47z" />
<glyph unicode="&#xea;" d="M571 1124h600q106 0 174 -17t108.5 -58.5t56.5 -103t16 -157.5v-194q0 -64 -27.5 -90.5t-89.5 -26.5h-1034v-49q0 -100 47.5 -141t177.5 -41h854q37 0 37 -37v-172q0 -37 -37 -37h-883q-185 0 -291 42.5t-151 131t-45 240.5v295q0 152 45 240.5t151 131.5t291 43z M375 715v-56h829q19 0 27 7.5t8 27.5v86q0 64 -27.5 90.5t-97.5 26.5h-514q-130 0 -177.5 -40.5t-47.5 -141.5zM715 1671h182q33 0 53 -12t35 -39l217 -371q13 -22 4.5 -36.5t-30.5 -14.5h-158q-44 0 -64 45l-118 227q-10 19 -25 19h-8q-17 0 -27 -19l-119 -227 q-20 -45 -63 -45h-158q-22 0 -30.5 14.5t4.5 36.5l217 371q15 27 35 39t53 12z" />
<glyph unicode="&#xeb;" d="M571 1124h600q106 0 174 -17t108.5 -58.5t56.5 -103t16 -157.5v-194q0 -64 -27.5 -90.5t-89.5 -26.5h-1034v-49q0 -100 47.5 -141t177.5 -41h854q37 0 37 -37v-172q0 -37 -37 -37h-883q-185 0 -291 42.5t-151 131t-45 240.5v295q0 152 45 240.5t151 131.5t291 43z M375 715v-56h829q19 0 27 7.5t8 27.5v86q0 64 -27.5 90.5t-97.5 26.5h-514q-130 0 -177.5 -40.5t-47.5 -141.5zM993 1540h201q45 0 45 -45v-195q0 -47 -45 -47h-201q-45 0 -45 47v195q0 45 45 45zM422 1540h201q45 0 45 -45v-195q0 -47 -45 -47h-201q-47 0 -47 47v195 q0 45 47 45z" />
<glyph unicode="&#xec;" horiz-adv-x="573" d="M37 1671h180q43 0 64 -47l186 -379q10 -22 1 -34.5t-34 -12.5h-153q-23 0 -37 11t-27 36l-211 379q-11 23 -1.5 35t32.5 12zM197 1124h200q45 0 45 -47v-1032q0 -45 -45 -45h-200q-45 0 -45 45v1032q0 47 45 47z" />
<glyph unicode="&#xed;" horiz-adv-x="575" d="M356 1671h181q23 0 32 -12t-2 -35l-211 -379q-13 -25 -26 -36t-35 -11h-156q-24 0 -33.5 12.5t0.5 34.5l187 379q21 47 63 47zM176 1124h201q45 0 45 -47v-1032q0 -45 -45 -45h-201q-45 0 -45 45v1032q0 47 45 47z" />
<glyph unicode="&#xee;" horiz-adv-x="747" d="M272 1124h201q45 0 45 -47v-1032q0 -45 -45 -45h-201q-45 0 -45 45v1032q0 47 45 47zM283 1671h182q33 0 53 -12t35 -39l217 -371q13 -22 4.5 -36.5t-31.5 -14.5h-157q-44 0 -64 45l-119 227q-9 19 -24 19h-8q-17 0 -27 -19l-119 -227q-20 -45 -63 -45h-158 q-23 0 -31.5 14.5t4.5 36.5l218 371q15 27 35 39t53 12z" />
<glyph unicode="&#xef;" horiz-adv-x="786" d="M293 1124h201q45 0 45 -47v-1032q0 -45 -45 -45h-201q-45 0 -45 45v1032q0 47 45 47zM530 1540h201q45 0 45 -45v-195q0 -47 -45 -47h-201q-47 0 -47 47v195q0 45 47 45zM53 1540h201q45 0 45 -45v-195q0 -47 -45 -47h-201q-47 0 -47 47v195q0 45 47 45z" />
<glyph unicode="&#xf0;" horiz-adv-x="1783" d="M840 1769h139q17 0 24 -9.5t1 -26.5l-66 -142h233q186 0 292.5 -43.5t151 -133t44.5 -243.5v-751q0 -116 -24 -193t-81 -129t-150 -75t-233 -23h-573q-185 0 -291 43t-151 133t-45 244v155q0 153 45 242.5t151 132.5t291 43h770v150q0 109 -48 154.5t-175 45.5h-322 l-94 -204q-7 -19 -14.5 -26t-26.5 -7h-139q-18 0 -25 10.5t0 28.5l92 198h-178q-37 0 -37 37v174q0 37 37 37h293l68 146q6 19 13.5 25.5t27.5 6.5zM1143 246q134 0 179.5 48t45.5 183v303h-741q-133 0 -178.5 -47.5t-45.5 -181.5v-76q0 -132 48.5 -180.5t187.5 -48.5h504z " />
<glyph unicode="&#xf1;" horiz-adv-x="1810" d="M610 1124h588q185 0 291.5 -43t151.5 -131.5t45 -240.5v-664q0 -45 -46 -45h-200q-45 0 -45 45v594q0 68 -8 108.5t-31.5 68t-64 38t-107.5 10.5h-545q-131 0 -177 -47.5t-46 -177.5v-594q0 -45 -45 -45h-201q-47 0 -47 45v664q0 152 45 240.5t151 131.5t291 43z M530 1233h-114q-24 0 -31.5 13t-7.5 50q0 177 58.5 244.5t197.5 67.5q107 0 186 -30.5t154 -92.5q26 -24 42.5 -35.5t45.5 -21t67 -9.5q60 0 76.5 28.5t16.5 117.5q1 27 15.5 38t41.5 11h115q24 0 30.5 -13t6.5 -51q0 -177 -57.5 -244t-196.5 -67q-107 0 -186 30.5 t-154 92.5q-38 34 -70 49.5t-86 15.5q-60 0 -76 -27.5t-18 -117.5q0 -49 -56 -49z" />
<glyph unicode="&#xf2;" horiz-adv-x="1777" d="M598 1124h580q185 0 291 -43t151 -131.5t45 -240.5v-295q0 -152 -45 -240.5t-151 -131t-291 -42.5h-580q-185 0 -291 42.5t-151 131t-45 240.5v295q0 152 45 240.5t151 131.5t291 43zM403 659v-194q0 -130 46.5 -177.5t177.5 -47.5h522q132 0 178.5 47.5t46.5 177.5v194 q0 130 -46.5 177t-178.5 47h-522q-131 0 -177.5 -47t-46.5 -177zM631 1671h180q42 0 63 -47l187 -379q10 -22 1 -34.5t-34 -12.5h-154q-23 0 -36.5 11t-26.5 36l-211 379q-11 23 -1.5 35t32.5 12z" />
<glyph unicode="&#xf3;" horiz-adv-x="1777" d="M598 1124h580q185 0 291 -43t151 -131.5t45 -240.5v-295q0 -152 -45 -240.5t-151 -131t-291 -42.5h-580q-185 0 -291 42.5t-151 131t-45 240.5v295q0 152 45 240.5t151 131.5t291 43zM403 659v-194q0 -130 46.5 -177.5t177.5 -47.5h522q132 0 178.5 47.5t46.5 177.5v194 q0 130 -46.5 177t-178.5 47h-522q-131 0 -177.5 -47t-46.5 -177zM963 1671h180q23 0 32.5 -12t-1.5 -35l-211 -379q-13 -25 -26.5 -36t-35.5 -11h-156q-24 0 -33 12.5t1 34.5l186 379q21 47 64 47z" />
<glyph unicode="&#xf4;" horiz-adv-x="1777" d="M598 1124h580q185 0 291 -43t151 -131.5t45 -240.5v-295q0 -152 -45 -240.5t-151 -131t-291 -42.5h-580q-185 0 -291 42.5t-151 131t-45 240.5v295q0 152 45 240.5t151 131.5t291 43zM403 659v-194q0 -130 46.5 -177.5t177.5 -47.5h522q132 0 178.5 47.5t46.5 177.5v194 q0 130 -46.5 177t-178.5 47h-522q-131 0 -177.5 -47t-46.5 -177zM795 1671h182q33 0 53 -12t35 -39l217 -371q13 -22 4.5 -36.5t-31.5 -14.5h-157q-44 0 -64 45l-119 227q-9 19 -24 19h-8q-17 0 -27 -19l-119 -227q-20 -45 -63 -45h-158q-23 0 -31.5 14.5t4.5 36.5l218 371 q15 27 35 39t53 12z" />
<glyph unicode="&#xf5;" horiz-adv-x="1777" d="M598 1124h580q185 0 291 -43t151 -131.5t45 -240.5v-295q0 -152 -45 -240.5t-151 -131t-291 -42.5h-580q-185 0 -291 42.5t-151 131t-45 240.5v295q0 152 45 240.5t151 131.5t291 43zM403 659v-194q0 -130 46.5 -177.5t177.5 -47.5h522q132 0 178.5 47.5t46.5 177.5v194 q0 130 -46.5 177t-178.5 47h-522q-131 0 -177.5 -47t-46.5 -177zM516 1233h-115q-24 0 -31.5 13t-7.5 50q0 177 58.5 244.5t197.5 67.5q107 0 186 -30.5t154 -92.5q39 -35 70 -50.5t86 -15.5q60 0 76 28t16 118q3 49 58 49h114q24 0 30.5 -13t6.5 -51q0 -177 -57.5 -244 t-196.5 -67q-107 0 -186 30.5t-154 92.5q-38 34 -69.5 49.5t-85.5 15.5q-60 0 -76.5 -28t-18.5 -117q0 -49 -55 -49z" />
<glyph unicode="&#xf6;" horiz-adv-x="1777" d="M598 1124h580q185 0 291 -43t151 -131.5t45 -240.5v-295q0 -152 -45 -240.5t-151 -131t-291 -42.5h-580q-185 0 -291 42.5t-151 131t-45 240.5v295q0 152 45 240.5t151 131.5t291 43zM403 659v-194q0 -130 46.5 -177.5t177.5 -47.5h522q132 0 178.5 47.5t46.5 177.5v194 q0 130 -46.5 177t-178.5 47h-522q-131 0 -177.5 -47t-46.5 -177zM1073 1540h201q45 0 45 -45v-195q0 -47 -45 -47h-201q-45 0 -45 47v195q0 45 45 45zM502 1540h200q46 0 46 -45v-195q0 -47 -46 -47h-200q-47 0 -47 47v195q0 45 47 45z" />
<glyph unicode="&#xf7;" horiz-adv-x="1255" d="M123 815h1010q36 0 36 -37v-123q0 -37 -36 -37h-1010q-37 0 -37 37v123q0 37 37 37zM528 395h201q45 0 45 -45v-196q0 -45 -45 -45h-201q-47 0 -47 45v196q0 45 47 45zM528 1325h201q45 0 45 -45v-197q0 -45 -45 -45h-201q-47 0 -47 45v197q0 45 47 45z" />
<glyph unicode="&#xf8;" horiz-adv-x="1777" d="M598 1124h580q60 0 116 -6l150 164q18 22 29.5 28.5t35.5 6.5h123q20 0 25.5 -13.5t-6.5 -27.5l-181 -195q104 -42 149.5 -131.5t45.5 -240.5v-295q0 -152 -45 -240.5t-151 -131t-291 -42.5h-580q-78 0 -113 4l-149 -164q-15 -19 -28.5 -26t-37.5 -7h-123 q-18 0 -23.5 13.5t5.5 25.5l178 195q-106 40 -151 129.5t-45 243.5v295q0 152 45 240.5t151 131.5t291 43zM403 659v-194q0 -95 21.5 -143t77.5 -68l575 629h-450q-131 0 -177.5 -47t-46.5 -177zM1374 659q0 93 -22 141t-76 66l-576 -626h449q132 0 178.5 47.5t46.5 177.5 v194z" />
<glyph unicode="&#xf9;" horiz-adv-x="1794" d="M170 1124h201q45 0 45 -47v-592q0 -68 8 -108t31 -68t63.5 -38.5t108.5 -10.5h526q132 0 178.5 47.5t46.5 177.5v592q0 47 45 47h201q45 0 45 -47v-663q0 -152 -45 -240.5t-151 -131t-291 -42.5h-572q-185 0 -291 42.5t-151 131t-45 240.5v663q0 47 47 47zM639 1671h180 q43 0 64 -47l186 -379q10 -22 1 -34.5t-34 -12.5h-153q-23 0 -37 11t-27 36l-211 379q-11 23 -1.5 35t32.5 12z" />
<glyph unicode="&#xfa;" horiz-adv-x="1794" d="M170 1124h201q45 0 45 -47v-592q0 -68 8 -108t31 -68t63.5 -38.5t108.5 -10.5h526q132 0 178.5 47.5t46.5 177.5v592q0 47 45 47h201q45 0 45 -47v-663q0 -152 -45 -240.5t-151 -131t-291 -42.5h-572q-185 0 -291 42.5t-151 131t-45 240.5v663q0 47 47 47zM975 1671h180 q23 0 32.5 -12t-1.5 -35l-211 -379q-13 -25 -26.5 -36t-35.5 -11h-155q-24 0 -33.5 12.5t0.5 34.5l186 379q21 47 64 47z" />
<glyph unicode="&#xfb;" horiz-adv-x="1794" d="M170 1124h201q45 0 45 -47v-592q0 -68 8 -108t31 -68t63.5 -38.5t108.5 -10.5h526q132 0 178.5 47.5t46.5 177.5v592q0 47 45 47h201q45 0 45 -47v-663q0 -152 -45 -240.5t-151 -131t-291 -42.5h-572q-185 0 -291 42.5t-151 131t-45 240.5v663q0 47 47 47zM803 1671h182 q33 0 53 -12t35 -39l217 -371q13 -22 4.5 -36.5t-30.5 -14.5h-158q-44 0 -64 45l-118 227q-10 19 -25 19h-8q-17 0 -27 -19l-119 -227q-20 -45 -63 -45h-158q-22 0 -30.5 14.5t4.5 36.5l217 371q15 27 35 39t53 12z" />
<glyph unicode="&#xfc;" horiz-adv-x="1794" d="M170 1124h201q45 0 45 -47v-592q0 -68 8 -108t31 -68t63.5 -38.5t108.5 -10.5h526q132 0 178.5 47.5t46.5 177.5v592q0 47 45 47h201q45 0 45 -47v-663q0 -152 -45 -240.5t-151 -131t-291 -42.5h-572q-185 0 -291 42.5t-151 131t-45 240.5v663q0 47 47 47zM1083 1540h201 q45 0 45 -45v-195q0 -47 -45 -47h-201q-45 0 -45 47v195q0 45 45 45zM512 1540h201q45 0 45 -45v-195q0 -47 -45 -47h-201q-47 0 -47 47v195q0 45 47 45z" />
<glyph unicode="&#xfd;" horiz-adv-x="1699" d="M1380 1124h230q22 0 29.5 -15.5t-3.5 -35.5l-786 -1386q-40 -72 -117 -106t-207 -34h-143q-37 0 -37 37v168q0 37 37 37h121q78 0 104 47l111 195q-49 4 -77 24t-54 64l-553 954q-11 20 -3.5 35.5t29.5 15.5h236q35 0 49 -28l455 -789q18 -29 27 -38t22 -9l481 836 q14 28 49 28zM932 1671h180q23 0 32.5 -12t-1.5 -35l-211 -379q-13 -25 -26.5 -36t-35.5 -11h-155q-24 0 -33.5 12.5t0.5 34.5l186 379q21 47 64 47z" />
<glyph unicode="&#xfe;" horiz-adv-x="1783" d="M170 1536h201q45 0 45 -45v-367h768q185 0 291 -43t151 -131.5t45 -240.5v-295q0 -152 -45 -240.5t-151 -131t-291 -42.5h-768v-408q0 -45 -45 -45h-201q-47 0 -47 45v1899q0 45 47 45zM416 879v-633h739q132 0 178.5 47.5t46.5 177.5v182q0 130 -46.5 178t-178.5 48 h-739z" />
<glyph unicode="&#xff;" horiz-adv-x="1699" d="M1380 1124h230q22 0 29.5 -15.5t-3.5 -35.5l-786 -1386q-40 -72 -117 -106t-207 -34h-143q-37 0 -37 37v168q0 37 37 37h121q78 0 104 47l111 195q-49 4 -77 24t-54 64l-553 954q-11 20 -3.5 35.5t29.5 15.5h236q35 0 49 -28l455 -789q18 -29 27 -38t22 -9l481 836 q14 28 49 28zM1036 1540h201q45 0 45 -45v-195q0 -47 -45 -47h-201q-45 0 -45 47v195q0 45 45 45zM465 1540h201q45 0 45 -45v-195q0 -47 -45 -47h-201q-47 0 -47 47v195q0 45 47 45z" />
<glyph unicode="&#x152;" horiz-adv-x="3217" d="M692 1434h633q289 0 422 -107q133 107 422 107h901q47 0 47 -45v-195q0 -45 -47 -45h-895q-159 0 -215.5 -58.5t-56.5 -220.5v-20h1157q45 0 45 -45v-162q0 -45 -45 -45h-1157v-35q0 -162 56.5 -220t215.5 -58h895q47 0 47 -45v-195q0 -45 -47 -45h-901q-293 0 -422 104 q-129 -104 -422 -104h-633q-311 0 -442 123.5t-131 417.5v352q0 294 131 417.5t442 123.5zM432 870v-307q0 -161 57.5 -219.5t215.5 -58.5h608q158 0 215 58.5t57 219.5v307q0 162 -57 220.5t-215 58.5h-608q-158 0 -215.5 -59t-57.5 -220z" />
<glyph unicode="&#x153;" horiz-adv-x="2914" d="M598 1124h580q231 0 346 -69q112 69 346 69h600q141 0 217.5 -33.5t106.5 -103.5t30 -199v-194q0 -64 -27.5 -90.5t-89.5 -26.5h-1034v-49q0 -100 47.5 -141t177.5 -41h855q36 0 36 -37v-172q0 -37 -36 -37h-883q-233 0 -346 70q-116 -70 -346 -70h-580q-185 0 -291 42.5 t-151 131t-45 240.5v295q0 152 45 240.5t151 131.5t291 43zM403 659v-194q0 -130 46.5 -177.5t177.5 -47.5h522q132 0 178.5 47.5t46.5 177.5v194q0 130 -46.5 177t-178.5 47h-522q-131 0 -177.5 -47t-46.5 -177zM1673 715v-56h830q19 0 26.5 7.5t7.5 27.5v86q0 64 -27 90.5 t-97 26.5h-515q-130 0 -177.5 -40.5t-47.5 -141.5z" />
<glyph unicode="&#x178;" horiz-adv-x="1835" d="M49 1434h275q32 0 49 -25l547 -739l550 739q17 25 50 25h268q17 0 23 -14t-5 -27l-735 -955v-393q0 -45 -45 -45h-221q-47 0 -47 45v393l-727 955q-11 13 -5.5 27t23.5 14zM530 1812h201q45 0 45 -36v-195q0 -37 -45 -37h-201q-45 0 -45 37v195q0 36 45 36zM1102 1812 h201q47 0 47 -36v-195q0 -37 -47 -37h-201q-45 0 -45 37v195q0 36 45 36z" />
<glyph unicode="&#x2c6;" horiz-adv-x="985" d="M401 1671h183q33 0 53 -12t35 -39l217 -371q13 -22 4.5 -36.5t-31.5 -14.5h-157q-44 0 -64 45l-119 227q-10 19 -24 19h-9q-17 0 -26 -19l-119 -227q-20 -45 -63 -45h-158q-23 0 -31.5 14.5t4.5 36.5l217 371q15 27 35 39t53 12z" />
<glyph unicode="&#x2dc;" horiz-adv-x="1308" d="M281 1233h-115q-24 0 -31.5 13t-7.5 50q0 177 58.5 244.5t197.5 67.5q107 0 186 -30.5t154 -92.5q39 -35 70 -50.5t86 -15.5q60 0 76 28t16 118q1 27 15.5 38t41.5 11h115q24 0 30.5 -13t6.5 -51q0 -177 -57.5 -244t-196.5 -67q-107 0 -186 30.5t-154 92.5 q-38 34 -70 49.5t-86 15.5q-60 0 -76 -27.5t-18 -117.5q0 -49 -55 -49z" />
<glyph unicode="&#x2000;" horiz-adv-x="938" />
<glyph unicode="&#x2001;" horiz-adv-x="1876" />
<glyph unicode="&#x2002;" horiz-adv-x="938" />
<glyph unicode="&#x2003;" horiz-adv-x="1876" />
<glyph unicode="&#x2004;" horiz-adv-x="625" />
<glyph unicode="&#x2005;" horiz-adv-x="469" />
<glyph unicode="&#x2006;" horiz-adv-x="312" />
<glyph unicode="&#x2007;" horiz-adv-x="312" />
<glyph unicode="&#x2008;" horiz-adv-x="234" />
<glyph unicode="&#x2009;" horiz-adv-x="375" />
<glyph unicode="&#x200a;" horiz-adv-x="104" />
<glyph unicode="&#x2010;" horiz-adv-x="782" d="M82 815h616q37 0 37 -37v-147q0 -37 -37 -37h-616q-37 0 -37 37v147q0 37 37 37z" />
<glyph unicode="&#x2011;" horiz-adv-x="782" d="M82 815h616q37 0 37 -37v-147q0 -37 -37 -37h-616q-37 0 -37 37v147q0 37 37 37z" />
<glyph unicode="&#x2012;" horiz-adv-x="782" d="M82 815h616q37 0 37 -37v-147q0 -37 -37 -37h-616q-37 0 -37 37v147q0 37 37 37z" />
<glyph unicode="&#x2013;" horiz-adv-x="1261" d="M82 815h1098q37 0 37 -37v-147q0 -37 -37 -37h-1098q-37 0 -37 37v147q0 37 37 37z" />
<glyph unicode="&#x2014;" horiz-adv-x="1884" d="M82 815h1718q37 0 37 -37v-147q0 -37 -37 -37h-1718q-37 0 -37 37v147q0 37 37 37z" />
<glyph unicode="&#x2018;" horiz-adv-x="546" d="M272 1536h84q25 0 33.5 -11.5t3.5 -35.5l-55 -303h37q45 0 45 -45v-199q0 -45 -45 -45h-201q-47 0 -47 45v172q0 48 14 96l76 279q8 26 20 36.5t35 10.5z" />
<glyph unicode="&#x2019;" horiz-adv-x="546" d="M174 1536h201q45 0 45 -45v-174q0 -46 -14 -96l-76 -279q-7 -26 -19 -35.5t-37 -9.5h-81q-48 0 -39 45l55 305h-35q-47 0 -47 45v199q0 45 47 45z" />
<glyph unicode="&#x201a;" horiz-adv-x="546" d="M174 287h201q45 0 45 -45v-174q0 -47 -14 -97l-76 -278q-7 -26 -19 -35.5t-37 -9.5h-81q-48 0 -39 45l55 305h-35q-47 0 -47 45v199q0 45 47 45z" />
<glyph unicode="&#x201c;" horiz-adv-x="985" d="M711 1536h84q25 0 33 -11.5t3 -35.5l-55 -303h37q45 0 45 -45v-199q0 -45 -45 -45h-201q-47 0 -47 45v172q0 45 15 96l75 279q7 26 20 36.5t36 10.5zM272 1536h84q25 0 33.5 -11.5t3.5 -35.5l-55 -303h37q45 0 45 -45v-199q0 -45 -45 -45h-201q-47 0 -47 45v172 q0 48 14 96l76 279q8 26 20 36.5t35 10.5z" />
<glyph unicode="&#x201d;" horiz-adv-x="985" d="M612 1536h201q45 0 45 -45v-174q0 -46 -14 -96l-76 -279q-8 -26 -19 -35.5t-36 -9.5h-82q-48 0 -39 45l55 305h-35q-47 0 -47 45v199q0 45 47 45zM174 1536h201q45 0 45 -45v-174q0 -46 -14 -96l-76 -279q-7 -26 -19 -35.5t-37 -9.5h-81q-48 0 -39 45l55 305h-35 q-47 0 -47 45v199q0 45 47 45z" />
<glyph unicode="&#x201e;" horiz-adv-x="985" d="M612 287h201q45 0 45 -45v-174q0 -47 -14 -97l-76 -278q-8 -26 -19 -35.5t-36 -9.5h-82q-48 0 -39 45l55 305h-35q-47 0 -47 45v199q0 45 47 45zM174 287h201q45 0 45 -45v-174q0 -47 -14 -97l-76 -278q-7 -26 -19 -35.5t-37 -9.5h-81q-48 0 -39 45l55 305h-35 q-47 0 -47 45v199q0 45 47 45z" />
<glyph unicode="&#x2022;" horiz-adv-x="905" d="M365 973h176q117 0 166 -46t49 -155v-131q0 -109 -49 -155t-166 -46h-176q-117 0 -166 46t-49 155v131q0 109 49 155t166 46z" />
<glyph unicode="&#x2026;" horiz-adv-x="1671" d="M735 287h201q45 0 45 -45v-197q0 -45 -45 -45h-201q-47 0 -47 45v197q0 45 47 45zM1298 287h201q45 0 45 -45v-197q0 -45 -45 -45h-201q-47 0 -47 45v197q0 45 47 45zM174 287h201q45 0 45 -45v-197q0 -45 -45 -45h-201q-47 0 -47 45v197q0 45 47 45z" />
<glyph unicode="&#x202f;" horiz-adv-x="375" />
<glyph unicode="&#x2039;" horiz-adv-x="606" d="M348 1124h156q23 0 31.5 -13t-0.5 -30l-228 -465q-12 -24 -12 -47v-14q0 -26 12 -47l228 -465q9 -17 0.5 -30t-31.5 -13h-156q-40 0 -55 35l-203 420q-24 52 -24 100v14q0 49 24 101l203 420q15 34 55 34z" />
<glyph unicode="&#x203a;" horiz-adv-x="606" d="M102 1124h156q37 0 55 -34l203 -420q25 -54 25 -101v-14q0 -46 -25 -100l-203 -420q-18 -35 -55 -35h-156q-23 0 -31.5 13t1.5 30l227 465q10 18 10 47v14q0 27 -10 47l-227 465q-10 17 -1.5 30t31.5 13z" />
<glyph unicode="&#x205f;" horiz-adv-x="469" />
<glyph unicode="&#x20ac;" horiz-adv-x="1677" d="M94 926h225q6 275 139 391.5t435 116.5h651q45 0 45 -45v-183q0 -45 -45 -45h-651q-148 0 -206 -50t-64 -185h538q37 0 37 -37v-51q0 -37 -37 -37h-538v-164h538q37 0 37 -37v-49q0 -37 -37 -37h-538q4 -139 62 -190.5t208 -51.5h651q45 0 45 -45v-182q0 -45 -45 -45 h-651q-305 0 -437.5 117.5t-136.5 396.5h-225q-37 0 -37 37v49q0 37 37 37h225v164h-225q-37 0 -37 37v51q0 37 37 37z" />
<glyph unicode="&#x2122;" horiz-adv-x="2678" d="M1341 1434h134q56 0 81.5 -18.5t51.5 -76.5l254 -589q6 -11 18 -11h14q14 0 17 11l256 589q25 58 50 76.5t81 18.5h131q63 0 85.5 -28t22.5 -99v-707q0 -27 -28 -27h-125q-27 0 -27 27v641q0 12 -10 12h-12q-12 0 -15 -8l-249 -551q-30 -68 -63 -94.5t-93 -26.5h-60 q-60 0 -92.5 26.5t-64.5 94.5l-248 551q-3 8 -16 8h-11q-10 0 -10 -12v-641q0 -27 -27 -27h-126q-27 0 -27 27v707q0 71 22 99t86 28zM111 1434h958q29 0 29 -27v-121q0 -29 -29 -29h-385v-657q0 -27 -27 -27h-135q-26 0 -26 27v657h-385q-29 0 -29 29v121q0 27 29 27z" />
<glyph unicode="&#x25fc;" horiz-adv-x="1126" d="M0 1126h1126v-1126h-1126v1126z" />
</font>
</defs>
</svg>
